<?xml version="1.0" standalone="no"?>
<!DOCTYPE svg PUBLIC "-//W3C//DTD SVG 1.1//EN" "http://www.w3.org/Graphics/SVG/1.1/DTD/svg11.dtd" >
<svg xmlns="http://www.w3.org/2000/svg" xmlns:xlink="http://www.w3.org/1999/xlink" version="1.1">
<metadata>
Created by FontForge 20170731 at Mon Sep  5 11:57:37 2016
 By Aleksey,,,
Copyright (c) 2016 by Chris Simpson.
</metadata>
<defs>
<font id="Metropolis-Light" horiz-adv-x="579" >
  <font-face 
    font-family="Metropolis Light"
    font-weight="400"
    font-stretch="normal"
    units-per-em="1000"
    panose-1="0 0 5 0 0 0 0 0 0 0"
    ascent="795"
    descent="-205"
    x-height="517"
    cap-height="687"
    bbox="-170 -273 1112 965"
    underline-thickness="20"
    underline-position="-173"
    unicode-range="U+0020-2212"
  />
<missing-glyph horiz-adv-x="500" 
d="M410 795v-1000h-317v1000h317zM333 728h-165v-33h65v-37h-66v-33h166v33h-66v37h66v33zM267 599h-100v-104h166v34h-66v70zM233 565v-36h-33v36h33zM333 468h-166v-33h66v-37h-66v-33h100v70h66v33zM333 408h-33v-66h-133v-34h166v100zM333 286h-100v-56h34v23h33v-47
h-100v80h-33v-113h166v113zM333 113h-166v-113h166v113zM300 80v-47h-100v47h100zM333 -23h-166v-33h70l-70 -47v-33h166v33h-102l70 47h32v33z" />
    <glyph glyph-name=".notdef" horiz-adv-x="500" 
d="M410 795v-1000h-317v1000h317zM333 728h-165v-33h65v-37h-66v-33h166v33h-66v37h66v33zM267 599h-100v-104h166v34h-66v70zM233 565v-36h-33v36h33zM333 468h-166v-33h66v-37h-66v-33h100v70h66v33zM333 408h-33v-66h-133v-34h166v100zM333 286h-100v-56h34v23h33v-47
h-100v80h-33v-113h166v113zM333 113h-166v-113h166v113zM300 80v-47h-100v47h100zM333 -23h-166v-33h70l-70 -47v-33h166v33h-102l70 47h32v33z" />
    <glyph glyph-name=".null" horiz-adv-x="0" 
 />
    <glyph glyph-name="nonmarkingreturn" horiz-adv-x="333" 
 />
    <glyph glyph-name="space" unicode=" " horiz-adv-x="290" 
 />
    <glyph glyph-name="exclam" unicode="!" horiz-adv-x="257" 
d="M106 193l-12 494h73l-13 -494h-48zM130 -12q-20 0 -33.5 13.5t-13.5 33.5q0 18 13.5 31.5t33.5 13.5q19 0 32 -13.5t13 -31.5q0 -20 -13 -33.5t-32 -13.5z" />
    <glyph glyph-name="quotedbl" unicode="&#x22;" horiz-adv-x="404" 
d="M92 438l-8 60t-9.5 76t-3.5 51q0 16 12 28t29 12q16 0 28 -11.5t12 -28.5q0 -20 -3.5 -51t-9.5 -76l-8 -60h-39zM272 438l-8 60t-9.5 76t-3.5 51q0 16 12 28t29 12q16 0 28 -11.5t12 -28.5q0 -20 -3.5 -51t-9.5 -76l-8 -60h-39z" />
    <glyph glyph-name="numbersign" unicode="#" horiz-adv-x="672" 
d="M619 450h-123l-54 -214h123l-13 -53h-123l-46 -183h-56l46 183h-160l-46 -183h-56l46 183h-118l13 53h118l54 214h-119l13 53h120l46 184h56l-46 -184h160l46 184h56l-46 -184h122zM386 236l54 214h-160l-54 -214h160z" />
    <glyph glyph-name="dollar" unicode="$" horiz-adv-x="610" 
d="M556 184q0 -82 -59 -136t-162 -59v-63h-64v66q-131 13 -225 106l40 50q80 -80 185 -96v272q-102 26 -150 67t-48 113q0 78 55.5 132t142.5 63v60h64v-61q112 -11 205 -96l-40 -50q-74 72 -165 86v-260q111 -27 166 -71t55 -123zM138 509q0 -41 32 -67.5t101 -46.5v244
q-59 -7 -96 -43.5t-37 -86.5zM335 48q72 4 114 41t42 89q0 49 -37.5 78.5t-118.5 51.5v-260z" />
    <glyph glyph-name="percent" unicode="%" horiz-adv-x="787" 
d="M201 349q-67 0 -110.5 49t-43.5 121q0 75 44 124.5t111 49.5q68 0 111.5 -49t43.5 -123t-44 -123t-112 -49zM129 0l470 687h60l-470 -687h-60zM202 397q44 0 72.5 35t28.5 88q0 54 -29 89.5t-73 35.5t-72 -35t-28 -90q0 -53 29 -88t72 -35zM583 -10q-67 0 -110.5 49
t-43.5 123q0 73 43.5 122.5t111.5 49.5t111.5 -49.5t43.5 -121.5q0 -75 -44 -124t-112 -49zM584 38q45 0 73 35t28 89q0 53 -29 88.5t-73 35.5t-72 -35t-28 -88q0 -54 28.5 -89.5t72.5 -35.5z" />
    <glyph glyph-name="ampersand" unicode="&#x26;" horiz-adv-x="662" 
d="M620 21l-60 -28l-95 96q-92 -101 -207 -101q-92 0 -154.5 54.5t-62.5 140.5q0 129 162 199q-63 84 -63 152q0 67 48.5 114t120.5 47q66 0 113 -47t47 -112q0 -62 -43 -99.5t-129 -73.5q54 -64 167 -183q44 64 85 160l54 -24q-48 -105 -99 -178q74 -74 116 -117zM308 638
q-45 0 -75.5 -29t-30.5 -75q0 -53 60 -129q78 32 111.5 59.5t33.5 70.5q0 42 -28.5 72.5t-70.5 30.5zM259 45q89 0 166 86q-126 132 -188 208q-134 -61 -134 -155q0 -61 45.5 -100t110.5 -39z" />
    <glyph glyph-name="quotesingle" unicode="'" horiz-adv-x="223" 
d="M92 438l-8 60t-9.5 76t-3.5 51q0 16 12 28t29 12q16 0 28 -11.5t12 -28.5q0 -20 -3.5 -51t-9.5 -76l-8 -60h-39z" />
    <glyph glyph-name="parenleft" unicode="(" horiz-adv-x="348" 
d="M267 -170q-99 88 -152 200.5t-53 234.5t53 234.5t152 200.5l35 -37q-175 -178 -175 -398t175 -397z" />
    <glyph glyph-name="parenright" unicode=")" horiz-adv-x="348" 
d="M81 -170l-35 38q175 177 175 397t-175 398l35 37q99 -88 152 -200.5t53 -234.5t-53 -234.5t-152 -200.5z" />
    <glyph glyph-name="asterisk" unicode="*" horiz-adv-x="392" 
d="M196 385q-10 0 -16.5 6.5t-6.5 14.5q0 17 2.5 36.5t6.5 44t6 38.5q-6 -5 -41.5 -33t-54.5 -39q-7 -4 -15.5 -1.5t-13.5 10.5q-12 18 6 30q19 11 60.5 27t50.5 20q-10 4 -50.5 20.5t-60.5 26.5q-18 12 -6 30q5 8 13.5 10.5t15.5 -1.5q19 -11 54 -39t42 -33q-2 14 -6 38.5
t-6.5 44t-2.5 36.5q0 8 6.5 14.5t16.5 6.5q9 0 15.5 -6.5t6.5 -14.5q0 -22 -6.5 -64.5t-7.5 -54.5q11 8 30 24t34.5 28t30.5 20q8 4 16.5 1.5t13.5 -10.5q10 -19 -7 -30q-19 -11 -59.5 -26.5t-50.5 -20.5q12 -5 51.5 -21t58.5 -26q17 -11 7 -30q-5 -8 -13.5 -10.5t-16.5 1.5
q-14 8 -29.5 20t-35 28t-30.5 24q1 -12 7.5 -54.5t6.5 -64.5q0 -8 -6.5 -14.5t-15.5 -6.5z" />
    <glyph glyph-name="plus" unicode="+" horiz-adv-x="593" 
d="M526 365v-62h-198v-198h-62v198h-199v62h199v199h62v-199h198z" />
    <glyph glyph-name="comma" unicode="," horiz-adv-x="256" 
d="M112 -130l-33 25q39 45 52 93q-19 0 -32.5 13.5t-13.5 33.5q0 19 13.5 32t33.5 13q23 0 37 -18.5t14 -48.5q0 -29 -15.5 -61t-55.5 -82z" />
    <glyph glyph-name="hyphen" unicode="-" horiz-adv-x="371" 
d="M56 241v61h259v-61h-259z" />
    <glyph glyph-name="period" unicode="." horiz-adv-x="237" 
d="M120 -12q-20 0 -33.5 13.5t-13.5 33.5q0 18 13.5 31.5t33.5 13.5q19 0 32 -13.5t13 -31.5q0 -20 -13 -33.5t-32 -13.5z" />
    <glyph glyph-name="slash" unicode="/" horiz-adv-x="400" 
d="M-16 -74l351 817h70l-351 -817h-70z" />
    <glyph glyph-name="zero" unicode="0" horiz-adv-x="675" 
d="M338 -12q-123 0 -201 99.5t-78 256.5q0 156 78 255.5t201 99.5q122 0 200 -99.5t78 -255.5q0 -157 -78 -256.5t-200 -99.5zM338 48q94 0 153.5 83t59.5 213t-59.5 212.5t-153.5 82.5t-154 -82.5t-60 -212.5t60 -213t154 -83z" />
    <glyph glyph-name="one" unicode="1" horiz-adv-x="346" 
d="M187 0v608l-132 -85l-29 49l173 115h52v-687h-64z" />
    <glyph glyph-name="two" unicode="2" horiz-adv-x="586" 
d="M49 0v56l256 219q139 119 139 221q0 62 -44 103.5t-107 41.5q-112 0 -192 -111l-46 37q93 132 239 132q91 0 153 -57.5t62 -144.5q0 -67 -38 -129t-122 -134l-200 -173h371v-61h-471z" />
    <glyph glyph-name="three" unicode="3" horiz-adv-x="574" 
d="M285 -12q-152 0 -245 123l45 42q75 -106 200 -106q73 0 120 40.5t47 102.5t-49 95t-135 33h-69v60l70 -1q76 0 122 34t46 94q0 57 -46 96t-113 39q-101 0 -184 -105l-43 40q93 124 231 124q94 0 157 -53t63 -134q0 -61 -35 -102t-91 -58q60 -14 100.5 -56.5t40.5 -109.5
q0 -85 -65.5 -141.5t-166.5 -56.5z" />
    <glyph glyph-name="four" unicode="4" horiz-adv-x="613" 
d="M393 0v173h-344l-9 56l340 458h77v-455h107v-59h-107v-173h-64zM114 232h279v378z" />
    <glyph glyph-name="five" unicode="5" horiz-adv-x="592" 
d="M299 -12q-149 0 -243 109l42 47q87 -97 203 -97q72 0 120.5 47.5t48.5 116.5q0 67 -48.5 111.5t-121.5 44.5q-79 0 -154 -55l-50 24l9 351h397v-61h-334l-7 -250q67 49 153 49q93 0 157 -58.5t64 -152.5q0 -98 -67.5 -162t-168.5 -64z" />
    <glyph glyph-name="six" unicode="6" horiz-adv-x="609" 
d="M325 429q93 0 158.5 -60t65.5 -154q0 -95 -67.5 -161t-167.5 -66q-126 0 -190 93.5t-64 251.5q0 156 77.5 261t193.5 105q110 0 195 -82l-36 -50q-75 73 -161 73q-87 0 -146 -88.5t-59 -218.5v-20q26 53 80.5 84.5t120.5 31.5zM313 45q74 0 122.5 50t48.5 116
q0 71 -49.5 116t-121.5 45q-68 0 -117.5 -38.5t-62.5 -99.5q16 -88 62 -138.5t118 -50.5z" />
    <glyph glyph-name="seven" unicode="7" horiz-adv-x="597" 
d="M147 0l297 626h-385v61h462v-49l-301 -638h-73z" />
    <glyph glyph-name="eight" unicode="8" horiz-adv-x="592" 
d="M296 -12q-103 0 -173.5 54t-70.5 137q0 61 42.5 108t108.5 68q-60 22 -96.5 65t-36.5 98q0 79 67 130t159 51q93 0 160 -51.5t67 -130.5q0 -57 -38 -99.5t-96 -62.5q66 -22 108.5 -69t42.5 -107q0 -83 -70.5 -137t-173.5 -54zM296 382q64 3 113 38.5t49 90.5
q0 54 -47.5 91.5t-114.5 37.5t-114 -37.5t-47 -91.5q0 -56 48.5 -91t112.5 -38zM296 47q74 0 126.5 39t52.5 97q0 60 -55 98.5t-124 40.5q-69 -2 -124 -40.5t-55 -98.5q0 -58 52 -97t127 -39z" />
    <glyph glyph-name="nine" unicode="9" horiz-adv-x="609" 
d="M295 699q126 0 190 -93.5t64 -251.5q0 -156 -77.5 -261t-193.5 -105q-110 0 -195 82l36 50q75 -73 161 -73q87 0 146 88.5t59 218.5v20q-26 -53 -80.5 -84.5t-120.5 -31.5q-93 0 -158.5 60t-65.5 154q0 95 67.5 161t167.5 66zM296 315q68 0 117.5 38.5t62.5 99.5
q-16 88 -62 138.5t-118 50.5q-74 0 -122.5 -50t-48.5 -116q0 -71 49.5 -116t121.5 -45z" />
    <glyph glyph-name="colon" unicode=":" horiz-adv-x="237" 
d="M120 414q-20 0 -33.5 14t-13.5 33q0 18 13.5 31.5t33.5 13.5q19 0 32 -13.5t13 -31.5q0 -19 -13 -33t-32 -14zM120 -12q-20 0 -33.5 13.5t-13.5 33.5q0 18 13.5 31.5t33.5 13.5q19 0 32 -13.5t13 -31.5q0 -20 -13 -33.5t-32 -13.5z" />
    <glyph glyph-name="semicolon" unicode=";" horiz-adv-x="256" 
d="M132 414q-20 0 -33.5 13.5t-13.5 33.5q0 18 13.5 31.5t33.5 13.5q19 0 32 -13.5t13 -31.5q0 -20 -13 -33.5t-32 -13.5zM112 -130l-33 25q39 45 52 93q-19 0 -32.5 13.5t-13.5 33.5q0 19 13.5 32t33.5 13q23 0 37 -18.5t14 -48.5q0 -29 -15.5 -61t-55.5 -82z" />
    <glyph glyph-name="less" unicode="&#x3c;" horiz-adv-x="586" 
d="M510 93l-455 224v54l455 224v-62l-390 -189l390 -189v-62z" />
    <glyph glyph-name="equal" unicode="=" horiz-adv-x="593" 
d="M67 413v62h459v-62h-459zM67 193v62h459v-62h-459z" />
    <glyph glyph-name="greater" unicode="&#x3e;" horiz-adv-x="586" 
d="M76 93v62l390 189l-390 189v62l455 -224v-54z" />
    <glyph glyph-name="question" unicode="?" horiz-adv-x="500" 
d="M191 193v179q88 8 144 46.5t56 91.5t-40 91.5t-102 38.5q-103 0 -179 -98l-43 42q92 115 226 115q88 0 145.5 -53t57.5 -131q0 -67 -56 -121t-144 -71v-130h-65zM224 -12q-20 0 -33.5 13.5t-13.5 33.5q0 18 13.5 31.5t33.5 13.5q19 0 32 -13.5t13 -31.5q0 -20 -13 -33.5
t-32 -13.5z" />
    <glyph glyph-name="at" unicode="@" horiz-adv-x="881" 
d="M426 -116q-155 0 -268.5 111t-113.5 264q0 169 124 292.5t294 123.5q153 0 264 -105.5t111 -250.5q0 -115 -53 -178t-125 -63q-45 0 -75 23t-38 63q-66 -86 -164 -86q-71 0 -116.5 48t-45.5 125q0 102 69.5 176t158.5 74q50 0 85.5 -23t53.5 -58l13 66l58 -5
q-54 -268 -54 -290q0 -32 20 -51t51 -19q48 0 87 51t39 147q0 130 -101 225t-240 95q-154 0 -266 -112.5t-112 -266.5q0 -139 102.5 -240t243.5 -101q115 0 216 61l18 -27q-108 -69 -236 -69zM397 129q68 0 113 50.5t54 125.5q9 66 -19.5 105.5t-89.5 39.5q-71 0 -123 -58
t-52 -137q0 -56 32.5 -91t84.5 -35z" />
    <glyph glyph-name="A" unicode="A" horiz-adv-x="740" 
d="M638 0l-71 162h-394l-71 -162h-70l303 687h70l303 -687h-70zM201 224h338l-169 384z" />
    <glyph glyph-name="B" unicode="B" horiz-adv-x="673" 
d="M94 0v687h306q83 0 136 -48t53 -123q0 -104 -98 -153q58 -26 91.5 -72.5t33.5 -102.5q0 -82 -57.5 -135t-146.5 -53h-318zM158 389h232q59 0 96.5 33.5t37.5 86.5q0 52 -38.5 85.5t-99.5 33.5h-228v-239zM158 59h240q67 0 110 38.5t43 97.5t-43 97t-110 38h-240v-271z
" />
    <glyph glyph-name="C" unicode="C" horiz-adv-x="680" 
d="M404 -12q-143 0 -247.5 105.5t-104.5 250.5t104.5 250t247.5 105q144 0 247 -105l-44 -44q-86 89 -203 89t-202 -87.5t-85 -207.5q0 -121 85 -208.5t202 -87.5q118 0 203 90l44 -45q-105 -105 -247 -105z" />
    <glyph glyph-name="D" unicode="D" horiz-adv-x="756" 
d="M94 0v687h233q160 0 262.5 -96t102.5 -247t-102.5 -247.5t-262.5 -96.5h-233zM158 59h169q132 0 216.5 80t84.5 205t-84.5 204.5t-216.5 79.5h-169v-569z" />
    <glyph glyph-name="E" unicode="E" horiz-adv-x="613" 
d="M558 626h-414v-245h376v-62h-376v-258h414v-61h-479v687h479v-61z" />
    <glyph glyph-name="F" unicode="F" horiz-adv-x="602" 
d="M565 626h-421v-245h380v-62h-380v-319h-65v687h486v-61z" />
    <glyph glyph-name="G" unicode="G" horiz-adv-x="744" 
d="M395 294v61h275v-263q-49 -47 -121 -75.5t-145 -28.5q-143 0 -247.5 105.5t-104.5 250.5t104.5 250t247.5 105q73 0 145 -28t121 -76l-44 -45q-40 41 -100.5 65t-121.5 24q-117 0 -202 -87.5t-85 -207.5q0 -121 85 -208.5t202 -87.5q114 0 202 70v176h-211z" />
    <glyph glyph-name="H" unicode="H" horiz-adv-x="705" 
d="M562 687h64v-687h-64v319h-419v-319h-64v687h64v-306h419v306z" />
    <glyph glyph-name="I" unicode="I" horiz-adv-x="222" 
d="M79 0v687h64v-687h-64z" />
    <glyph glyph-name="J" unicode="J" horiz-adv-x="533" 
d="M234 -12q-61 0 -118.5 31.5t-89.5 82.5l45 47q23 -45 68.5 -73.5t94.5 -28.5q65 0 107 49t42 125v466h64v-466q0 -102 -59.5 -167.5t-153.5 -65.5z" />
    <glyph glyph-name="K" unicode="K" horiz-adv-x="644" 
d="M92 0v687h64v-397l363 397h85l-288 -313l308 -374h-83l-269 330l-116 -124v-206h-64z" />
    <glyph glyph-name="L" unicode="L" horiz-adv-x="548" 
d="M132 61h382v-61h-446v687h64v-626z" />
    <glyph glyph-name="M" unicode="M" horiz-adv-x="840" 
d="M94 0v687h64l262 -492l262 492h64v-687h-64v551l-262 -492l-262 492v-551h-64z" />
    <glyph glyph-name="N" unicode="N" horiz-adv-x="756" 
d="M94 0v687h64l440 -583v583h64v-687h-64l-440 583v-583h-64z" />
    <glyph glyph-name="O" unicode="O" horiz-adv-x="807" 
d="M404 -12q-143 0 -247.5 105.5t-104.5 250.5t104.5 250t247.5 105t247 -105t104 -250t-104 -250.5t-247 -105.5zM404 48q117 0 201.5 87.5t84.5 208.5q0 120 -84.5 207.5t-201.5 87.5t-202 -87.5t-85 -207.5q0 -121 85 -208.5t202 -87.5z" />
    <glyph glyph-name="P" unicode="P" horiz-adv-x="642" 
d="M79 0v687h282q106 0 177 -61t71 -156t-70.5 -155.5t-177.5 -60.5h-218v-254h-64zM143 315h207q87 0 141 42t54 113t-54 113.5t-141 42.5h-207v-311z" />
    <glyph glyph-name="Q" unicode="Q" horiz-adv-x="807" 
d="M755 344q0 -129 -85 -230l76 -66l-41 -48l-80 69q-99 -81 -221 -81q-143 0 -247.5 105.5t-104.5 250.5t104.5 250t247.5 105t247 -105t104 -250zM404 48q96 0 174 62l-117 101l41 48l120 -104q68 83 68 189q0 120 -84.5 207.5t-201.5 87.5t-202 -87.5t-85 -207.5
q0 -121 85 -208.5t202 -87.5z" />
    <glyph glyph-name="R" unicode="R" horiz-adv-x="646" 
d="M609 470q0 -82 -54.5 -140t-141.5 -72l182 -258h-74l-179 254h-199v-254h-64v687h282q106 0 177 -61t71 -156zM143 626v-311h207q87 0 141 42t54 113t-54 113.5t-141 42.5h-207z" />
    <glyph glyph-name="S" unicode="S" horiz-adv-x="610" 
d="M317 -11q-160 0 -271 109l40 50q100 -100 233 -100q79 0 125.5 37.5t46.5 92.5q0 54 -45.5 84.5t-147.5 54.5q-116 27 -170.5 68.5t-54.5 118.5q0 84 64.5 140t162.5 56q132 0 240 -98l-40 -50q-91 89 -203 89q-69 0 -114 -38.5t-45 -93.5q0 -49 45 -77t147 -53
q113 -27 169.5 -71t56.5 -124q0 -85 -64 -140t-175 -55z" />
    <glyph glyph-name="T" unicode="T" horiz-adv-x="630" 
d="M283 0v626h-238v61h540v-61h-238v-626h-64z" />
    <glyph glyph-name="U" unicode="U" horiz-adv-x="732" 
d="M366 -12q-123 0 -201.5 81.5t-78.5 208.5v409h64v-409q0 -101 60.5 -166t155.5 -65t155.5 65t60.5 166v409h64v-409q0 -127 -78.5 -208.5t-201.5 -81.5z" />
    <glyph glyph-name="V" unicode="V" horiz-adv-x="740" 
d="M638 687h70l-303 -687h-70l-303 687h70l268 -608z" />
    <glyph glyph-name="W" unicode="W" horiz-adv-x="1065" 
d="M270 0l-233 687h72l197 -580l191 580h71l192 -580l196 580h72l-233 -687h-65l-197 600l-198 -600h-65z" />
    <glyph glyph-name="X" unicode="X" horiz-adv-x="681" 
d="M643 687l-263 -344l262 -343h-79l-223 292l-223 -292h-79l263 343l-263 344h79l223 -292l224 292h79z" />
    <glyph glyph-name="Y" unicode="Y" horiz-adv-x="658" 
d="M296 0v280l-278 407h80l231 -344l233 344h78l-277 -407v-280h-67z" />
    <glyph glyph-name="Z" unicode="Z" horiz-adv-x="632" 
d="M58 0v51l428 575h-421v61h507v-51l-429 -575h433v-61h-518z" />
    <glyph glyph-name="bracketleft" unicode="[" horiz-adv-x="361" 
d="M81 -115v849h231v-50h-175v-749h175v-50h-231z" />
    <glyph glyph-name="backslash" unicode="\" horiz-adv-x="400" 
d="M346 -74l-351 817h70l351 -817h-70z" />
    <glyph glyph-name="bracketright" unicode="]" horiz-adv-x="361" 
d="M49 -115v50h175v749h-175v50h231v-849h-231z" />
    <glyph glyph-name="asciicircum" unicode="^" horiz-adv-x="483" 
d="M54 413l161 274h54l160 -274h-58l-129 224l-131 -224h-57z" />
    <glyph glyph-name="underscore" unicode="_" horiz-adv-x="592" 
d="M-2 -137v57h596v-57h-596z" />
    <glyph glyph-name="grave" unicode="`" horiz-adv-x="315" 
d="M197 576l-134 128l66 15l123 -143h-55z" />
    <glyph glyph-name="a" unicode="a" horiz-adv-x="567" 
d="M283 529q99 0 153 -58.5t54 -155.5v-315h-62v82q-27 -44 -81 -69t-109 -25q-82 0 -135 45.5t-53 119.5q0 76 58.5 124t146.5 48q78 0 173 -31v21q0 67 -35 113t-115 46q-70 0 -153 -46l-25 51q94 50 183 50zM248 44q60 0 113 31t67 87v83q-85 26 -164 26
q-65 0 -109 -32.5t-44 -82.5q0 -51 39 -81.5t98 -30.5z" />
    <glyph glyph-name="b" unicode="b" horiz-adv-x="628" 
d="M338 529q100 0 168 -77.5t68 -192.5q0 -116 -68 -193.5t-168 -77.5q-128 0 -193 113v-101h-62v699h62v-283q65 113 193 113zM327 45q78 0 130.5 61.5t52.5 152.5t-52.5 152t-130.5 61q-80 0 -131 -59.5t-51 -153.5t51 -154t131 -60z" />
    <glyph glyph-name="c" unicode="c" horiz-adv-x="535" 
d="M313 -12q-110 0 -187.5 79t-77.5 192t77.5 191.5t187.5 78.5q103 0 181 -76l-43 -42q-58 61 -138 61q-84 0 -142 -62t-58 -151q0 -90 58 -152t142 -62q82 0 140 63l43 -42q-78 -78 -183 -78z" />
    <glyph glyph-name="d" unicode="d" horiz-adv-x="628" 
d="M483 699h62v-699h-62v101q-65 -113 -193 -113q-100 0 -168 77.5t-68 193.5q0 115 68 192.5t168 77.5q128 0 193 -113v283zM301 45q80 0 131 60t51 154t-51 153.5t-131 59.5q-78 0 -130.5 -61t-52.5 -152t52.5 -152.5t130.5 -61.5z" />
    <glyph glyph-name="e" unicode="e" horiz-adv-x="595" 
d="M307 45q49 0 97 18t75 47l39 -42q-32 -35 -92.5 -57.5t-118.5 -22.5q-105 0 -182 78.5t-77 193.5q0 114 74.5 191.5t180.5 77.5q114 0 179.5 -80t65.5 -215h-437q8 -81 63 -135t133 -54zM305 472q-76 0 -129.5 -50.5t-63.5 -130.5h374q-6 81 -54 131t-127 50z" />
    <glyph glyph-name="f" unicode="f" horiz-adv-x="348" 
d="M183 588v-71h133v-57h-133v-460h-62v460h-84v57h84v71q0 58 33.5 95t86.5 37q52 0 96 -33l-32 -46q-22 22 -60 22q-26 0 -44 -21t-18 -54z" />
    <glyph glyph-name="g" unicode="g" horiz-adv-x="623" 
d="M478 517h62v-462q0 -100 -69.5 -163.5t-178.5 -63.5q-60 0 -116.5 19t-92.5 50l28 50q69 -62 174 -62q89 0 141 45.5t52 124.5v94q-30 -53 -81.5 -82t-115.5 -29q-101 0 -167.5 70t-66.5 176q0 105 67 175t167 70q134 0 197 -110v98zM292 95q81 0 133.5 53t52.5 136
q0 82 -52.5 135t-133.5 53q-77 0 -129 -54t-52 -134q0 -81 52 -135t129 -54z" />
    <glyph glyph-name="h" unicode="h" 
d="M309 529q85 0 139.5 -55.5t54.5 -141.5v-332h-62v324q0 65 -39 106.5t-101 41.5q-68 0 -115 -41.5t-47 -101.5v-329h-62v699h62v-267q21 43 67.5 70t102.5 27z" />
    <glyph glyph-name="i" unicode="i" horiz-adv-x="212" 
d="M106 618q-18 0 -30.5 12.5t-12.5 30.5q0 17 12.5 30t30.5 13t30.5 -13t12.5 -30q0 -18 -12.5 -30.5t-30.5 -12.5zM75 0v517h62v-517h-62z" />
    <glyph glyph-name="j" unicode="j" horiz-adv-x="204" 
d="M102 618q-18 0 -30.5 12.5t-12.5 30.5q0 17 12.5 30t30.5 13t30.5 -13t12.5 -30q0 -18 -12.5 -30.5t-30.5 -12.5zM13 -178q-45 0 -81 16l10 53q29 -12 67 -12q27 0 44.5 20.5t17.5 51.5v566h62v-566q0 -56 -34 -92.5t-86 -36.5z" />
    <glyph glyph-name="k" unicode="k" horiz-adv-x="529" 
d="M515 517l-233 -237l220 -280h-78l-186 238l-101 -102v-136h-62v699h62v-483l297 301h81z" />
    <glyph glyph-name="l" unicode="l" horiz-adv-x="214" 
d="M76 0v699h62v-699h-62z" />
    <glyph glyph-name="m" unicode="m" horiz-adv-x="883" 
d="M626 529q79 0 130 -55.5t51 -141.5v-332h-62v324q0 65 -36 106.5t-92 41.5q-64 0 -104.5 -39t-40.5 -101v-332h-62v324q0 65 -35.5 106.5t-91.5 41.5q-64 0 -104.5 -39t-40.5 -101v-332h-62v517h62v-76q19 41 59.5 64.5t93.5 23.5q58 0 101 -30t64 -82q16 51 63 81.5
t107 30.5z" />
    <glyph glyph-name="n" unicode="n" 
d="M309 529q85 0 139.5 -55.5t54.5 -141.5v-332h-62v324q0 65 -39 106.5t-101 41.5q-68 0 -115 -41.5t-47 -101.5v-329h-62v517h62v-85q21 43 67.5 70t102.5 27z" />
    <glyph glyph-name="o" unicode="o" horiz-adv-x="631" 
d="M316 -12q-109 0 -188.5 80.5t-79.5 190.5t79.5 190t188.5 80t188 -80t79 -190t-79 -190.5t-188 -80.5zM316 45q83 0 142.5 63t59.5 151q0 87 -59.5 150t-142.5 63t-143 -63t-60 -150q0 -88 60 -151t143 -63z" />
    <glyph glyph-name="p" unicode="p" horiz-adv-x="628" 
d="M338 529q100 0 168 -77.5t68 -192.5q0 -116 -68 -193.5t-168 -77.5q-128 0 -193 113v-273h-62v689h62v-101q65 113 193 113zM327 45q78 0 130.5 61.5t52.5 152.5t-52.5 152t-130.5 61q-80 0 -131 -59.5t-51 -153.5t51 -154t131 -60z" />
    <glyph glyph-name="q" unicode="q" horiz-adv-x="628" 
d="M483 517h62v-689h-62v273q-65 -113 -193 -113q-100 0 -168 77.5t-68 193.5q0 115 68 192.5t168 77.5q128 0 193 -113v101zM301 45q80 0 131 60t51 154t-51 153.5t-131 59.5q-78 0 -130.5 -61t-52.5 -152t52.5 -152.5t130.5 -61.5z" />
    <glyph glyph-name="r" unicode="r" horiz-adv-x="373" 
d="M145 411q22 53 76 85.5t124 32.5v-57q-88 0 -144 -51.5t-56 -131.5v-289h-62v517h62v-106z" />
    <glyph glyph-name="s" unicode="s" horiz-adv-x="493" 
d="M259 -12q-118 0 -214 77l33 46q92 -66 181 -66q53 0 88.5 24.5t35.5 61.5q0 39 -33.5 61.5t-103.5 43.5q-94 27 -133.5 60.5t-39.5 87.5q0 64 51 104.5t127 40.5q96 0 185 -58l-31 -48q-80 49 -154 49q-49 0 -82.5 -22.5t-33.5 -58.5q0 -34 30.5 -54.5t110.5 -46.5
q84 -27 126.5 -59t42.5 -94q0 -65 -53.5 -107t-132.5 -42z" />
    <glyph glyph-name="t" unicode="t" horiz-adv-x="367" 
d="M305 67l32 -46q-42 -33 -96 -33q-53 0 -86.5 37t-33.5 95v340h-84v57h84v142h62v-142h130v-57h-130v-340q0 -33 18 -54t44 -21q36 0 60 22z" />
    <glyph glyph-name="u" unicode="u" 
d="M440 517h62v-517h-62v85q-21 -43 -67.5 -70t-102.5 -27q-85 0 -139.5 55.5t-54.5 141.5v332h62v-324q0 -65 39 -106.5t101 -41.5q68 0 115 41.5t47 101.5v329z" />
    <glyph glyph-name="v" unicode="v" horiz-adv-x="559" 
d="M253 0l-226 517h69l184 -438l183 438h69l-224 -517h-55z" />
    <glyph glyph-name="w" unicode="w" horiz-adv-x="820" 
d="M207 0l-172 517h66l137 -434l146 434h54l145 -434l138 434h66l-173 -517h-62l-141 425l-142 -425h-62z" />
    <glyph glyph-name="x" unicode="x" horiz-adv-x="536" 
d="M504 0h-73l-163 216l-163 -216h-73l200 264l-192 253h73l155 -205l155 205h73l-191 -253z" />
    <glyph glyph-name="y" unicode="y" horiz-adv-x="584" 
d="M144 -180q-45 0 -82 17l16 55q29 -15 64 -15q57 0 84 48l31 67l-227 525h68l191 -451l181 451h67l-238 -581q-24 -60 -62 -87.5t-93 -28.5z" />
    <glyph glyph-name="z" unicode="z" horiz-adv-x="514" 
d="M54 0v49l323 409h-317v59h400v-49l-324 -409h326v-59h-408z" />
    <glyph glyph-name="braceleft" unicode="{" horiz-adv-x="393" 
d="M342 -166q-109 12 -152.5 50.5t-43.5 118.5v141q0 52 -24 74.5t-79 22.5v49q56 0 79.5 23t23.5 75v140q0 80 43.5 118.5t152.5 50.5l5 -47q-86 -12 -116 -38.5t-30 -87.5l1 -144q0 -90 -73 -114q73 -25 73 -115l-1 -143q0 -62 30 -88.5t116 -38.5z" />
    <glyph glyph-name="bar" unicode="|" horiz-adv-x="270" 
d="M109 -74v817h52v-817h-52z" />
    <glyph glyph-name="braceright" unicode="}" horiz-adv-x="393" 
d="M51 -166l-5 47q86 12 116 38.5t30 88.5l-1 143q0 90 74 115q-74 24 -74 114l1 144q0 61 -30 87.5t-116 38.5l5 47q109 -12 152.5 -50.5t43.5 -118.5v-140q0 -52 23.5 -75t79.5 -23v-49q-55 0 -79 -22.5t-24 -74.5v-141q0 -80 -43.5 -118.5t-152.5 -50.5z" />
    <glyph glyph-name="asciitilde" unicode="~" horiz-adv-x="447" 
d="M288 304q-32 0 -71.5 33t-57.5 33q-40 0 -52 -72l-42 7q14 115 94 115q32 0 71.5 -33t57.5 -33q39 0 52 72l42 -7q-14 -115 -94 -115z" />
    <glyph glyph-name="exclamdown" unicode="&#xa1;" horiz-adv-x="257" 
d="M127 529q20 0 33.5 -13.5t13.5 -33.5q0 -18 -13.5 -31.5t-33.5 -13.5q-19 0 -32 13.5t-13 31.5q0 20 13 33.5t32 13.5zM151 324l12 -494h-73l13 494h48z" />
    <glyph glyph-name="cent" unicode="&#xa2;" horiz-adv-x="535" 
d="M496 66q-71 -71 -165 -77v-63h-64v66q-95 17 -157 92t-62 175t62 174.5t157 91.5v64h64v-61q92 -6 163 -75l-43 -42q-51 54 -120 60v-425q72 8 122 62zM113 259q0 -77 43.5 -134.5t110.5 -74.5v417q-67 -17 -110.5 -74.5t-43.5 -133.5z" />
    <glyph glyph-name="sterling" unicode="&#xa3;" horiz-adv-x="602" 
d="M178 61h378v-61h-501v31l59 30v205h-57v57h57v140q0 104 59.5 170t153.5 66q69 0 126.5 -32t82.5 -84l-47 -45q-16 46 -60.5 74t-101.5 28q-65 0 -107 -49.5t-42 -127.5v-140h205v-57h-205v-205z" />
    <glyph glyph-name="yen" unicode="&#xa5;" horiz-adv-x="658" 
d="M640 687l-247 -363h178v-57h-208v-90h208v-57h-208v-120h-67v120h-208v57h208v90h-208v57h178l-248 363h80l231 -344l233 344h78z" />
    <glyph glyph-name="dieresis" unicode="&#xa8;" horiz-adv-x="410" 
d="M109 602q-17 0 -29 12t-12 29q0 16 12 28.5t29 12.5q16 0 28.5 -12.5t12.5 -28.5q0 -17 -12 -29t-29 -12zM301 602q-17 0 -29 12t-12 29q0 16 12 28.5t29 12.5q16 0 28.5 -12.5t12.5 -28.5q0 -17 -12 -29t-29 -12z" />
    <glyph glyph-name="macron" unicode="&#xaf;" horiz-adv-x="436" 
d="M63 597v49h310v-49h-310z" />
    <glyph glyph-name="acute" unicode="&#xb4;" horiz-adv-x="315" 
d="M63 576l122 143l67 -15l-134 -128h-55z" />
    <glyph glyph-name="cedilla" unicode="&#xb8;" horiz-adv-x="308" 
d="M177 -45q29 0 48.5 -18.5t19.5 -46.5q0 -36 -28 -59t-68 -23q-51 0 -86 28l18 39q29 -24 65 -24q22 0 37 12t15 29q0 16 -10.5 25.5t-29.5 9.5q-20 0 -34 -11l-16 17l33 78h48l-24 -57q4 1 12 1z" />
    <glyph glyph-name="questiondown" unicode="&#xbf;" horiz-adv-x="500" 
d="M276 529q20 0 33.5 -13.5t13.5 -33.5q0 -18 -13.5 -31.5t-33.5 -13.5q-19 0 -32 13.5t-13 31.5q0 20 13 33.5t32 13.5zM309 324v-179q-88 -8 -144 -46.5t-56 -91.5t40 -91.5t102 -38.5q103 0 179 98l43 -42q-92 -115 -226 -115q-88 0 -145.5 53t-57.5 131q0 67 56 121
t144 71v130h65z" />
    <glyph glyph-name="Agrave" unicode="&#xc0;" horiz-adv-x="740" 
d="M399 746h-55l-134 128l66 15zM638 0l-71 162h-394l-71 -162h-70l303 687h70l303 -687h-70zM201 224h338l-169 384z" />
    <glyph glyph-name="Aacute" unicode="&#xc1;" horiz-adv-x="740" 
d="M531 874l-134 -128h-55l122 143zM638 0l-71 162h-394l-71 -162h-70l303 687h70l303 -687h-70zM201 224h338l-169 384z" />
    <glyph glyph-name="Acircumflex" unicode="&#xc2;" horiz-adv-x="740" 
d="M370 839l-80 -93h-53l102 137h61l104 -137h-53zM638 0l-71 162h-394l-71 -162h-70l303 687h70l303 -687h-70zM201 224h338l-169 384z" />
    <glyph glyph-name="Atilde" unicode="&#xc3;" horiz-adv-x="740" 
d="M305 815q-40 0 -52 -72l-42 7q14 115 94 115q32 0 71.5 -33t57.5 -33q39 0 52 72l42 -7q-14 -115 -94 -115q-32 0 -71.5 33t-57.5 33zM638 0l-71 162h-394l-71 -162h-70l303 687h70l303 -687h-70zM201 224h338l-169 384z" />
    <glyph glyph-name="Adieresis" unicode="&#xc4;" horiz-adv-x="740" 
d="M274 772q-17 0 -29 12t-12 29q0 16 12 28.5t29 12.5q16 0 28.5 -12.5t12.5 -28.5q0 -17 -12.5 -29t-28.5 -12zM466 772q-17 0 -29 12t-12 29q0 16 12 28.5t29 12.5q16 0 28.5 -12.5t12.5 -28.5q0 -17 -12.5 -29t-28.5 -12zM638 0l-71 162h-394l-71 -162h-70l303 687h70
l303 -687h-70zM201 224h338l-169 384z" />
    <glyph glyph-name="Aring" unicode="&#xc5;" horiz-adv-x="740" 
d="M370 759q-43 0 -73 30t-30 73t30 73t73 30t73 -30t30 -73t-30 -73t-73 -30zM370 924q-26 0 -44 -18t-18 -44t18 -44t44 -18t44 18t18 44t-18 44t-44 18zM638 0l-71 162h-394l-71 -162h-70l303 687h70l303 -687h-70zM201 224h338l-169 384z" />
    <glyph glyph-name="AE" unicode="&#xc6;" horiz-adv-x="1001" 
d="M946 626h-414v-245h376v-62h-376v-258h414v-61h-479v162h-267l-94 -162h-74l396 687h518v-61zM235 224h232v401z" />
    <glyph glyph-name="Ccedilla" unicode="&#xc7;" horiz-adv-x="680" 
d="M651 93q-98 -98 -229 -104l-14 -35q4 1 12 1q29 0 48.5 -18.5t19.5 -46.5q0 -36 -28 -59t-68 -23q-51 0 -86 28l18 39q28 -24 65 -24q22 0 37 12t15 29q0 16 -10.5 25.5t-29.5 9.5q-20 0 -34 -11l-16 17l24 56q-134 12 -228.5 115.5t-94.5 239.5q0 145 104.5 250
t247.5 105q144 0 247 -105l-44 -44q-86 89 -203 89t-202 -87.5t-85 -207.5q0 -121 85 -208.5t202 -87.5q118 0 203 90z" />
    <glyph glyph-name="Egrave" unicode="&#xc8;" horiz-adv-x="613" 
d="M390 746h-55l-134 128l66 15zM558 626h-414v-245h376v-62h-376v-258h414v-61h-479v687h479v-61z" />
    <glyph glyph-name="Eacute" unicode="&#xc9;" horiz-adv-x="613" 
d="M431 874l-134 -128h-55l122 143zM558 626h-414v-245h376v-62h-376v-258h414v-61h-479v687h479v-61z" />
    <glyph glyph-name="Ecircumflex" unicode="&#xca;" horiz-adv-x="613" 
d="M319 839l-80 -93h-53l102 137h61l104 -137h-53zM558 626h-414v-245h376v-62h-376v-258h414v-61h-479v687h479v-61z" />
    <glyph glyph-name="Edieresis" unicode="&#xcb;" horiz-adv-x="613" 
d="M223 772q-17 0 -29 12t-12 29q0 16 12 28.5t29 12.5q16 0 28.5 -12.5t12.5 -28.5q0 -17 -12 -29t-29 -12zM415 772q-17 0 -29 12t-12 29q0 16 12 28.5t29 12.5q16 0 28.5 -12.5t12.5 -28.5q0 -17 -12 -29t-29 -12zM558 626h-414v-245h376v-62h-376v-258h414v-61h-479v687
h479v-61z" />
    <glyph glyph-name="Igrave" unicode="&#xcc;" horiz-adv-x="222" 
d="M85 746l-134 128l66 15l123 -143h-55zM79 0v687h64v-687h-64z" />
    <glyph glyph-name="Iacute" unicode="&#xcd;" horiz-adv-x="222" 
d="M83 746l122 143l67 -15l-134 -128h-55zM79 0v687h64v-687h-64z" />
    <glyph glyph-name="Icircumflex" unicode="&#xce;" horiz-adv-x="222" 
d="M-22 746l102 137h61l104 -137h-53l-81 93l-80 -93h-53zM79 0v687h64v-687h-64z" />
    <glyph glyph-name="Idieresis" unicode="&#xcf;" horiz-adv-x="222" 
d="M15 772q-17 0 -29 12t-12 29q0 16 12 28.5t29 12.5q16 0 28.5 -12.5t12.5 -28.5q0 -17 -12 -29t-29 -12zM207 772q-17 0 -29 12t-12 29q0 16 12 28.5t29 12.5q16 0 28.5 -12.5t12.5 -28.5q0 -17 -12 -29t-29 -12zM79 0v687h64v-687h-64z" />
    <glyph glyph-name="Eth" unicode="&#xd0;" horiz-adv-x="778" 
d="M349 687q160 0 262.5 -96t102.5 -247t-102.5 -247.5t-262.5 -96.5h-233v319h-74v62h74v306h233zM349 59q132 0 216.5 80t84.5 205t-84.5 204.5t-216.5 79.5h-169v-247h211l-1 -62h-210v-260h169z" />
    <glyph glyph-name="Ntilde" unicode="&#xd1;" horiz-adv-x="756" 
d="M442 749q-32 0 -71.5 33t-57.5 33q-40 0 -52 -72l-42 7q14 115 94 115q32 0 71.5 -33t57.5 -33q39 0 52 72l42 -7q-14 -115 -94 -115zM94 0v687h64l440 -583v583h64v-687h-64l-440 583v-583h-64z" />
    <glyph glyph-name="Ograve" unicode="&#xd2;" horiz-adv-x="807" 
d="M380 746l-134 128l66 15l123 -143h-55zM404 -12q-143 0 -247.5 105.5t-104.5 250.5t104.5 250t247.5 105t247 -105t104 -250t-104 -250.5t-247 -105.5zM404 48q117 0 201.5 87.5t84.5 208.5q0 120 -84.5 207.5t-201.5 87.5t-202 -87.5t-85 -207.5q0 -121 85 -208.5
t202 -87.5z" />
    <glyph glyph-name="Oacute" unicode="&#xd3;" horiz-adv-x="807" 
d="M376 746l122 143l67 -15l-134 -128h-55zM404 -12q-143 0 -247.5 105.5t-104.5 250.5t104.5 250t247.5 105t247 -105t104 -250t-104 -250.5t-247 -105.5zM404 48q117 0 201.5 87.5t84.5 208.5q0 120 -84.5 207.5t-201.5 87.5t-202 -87.5t-85 -207.5q0 -121 85 -208.5
t202 -87.5z" />
    <glyph glyph-name="Ocircumflex" unicode="&#xd4;" horiz-adv-x="807" 
d="M271 746l102 137h61l104 -137h-53l-81 93l-80 -93h-53zM404 -12q-143 0 -247.5 105.5t-104.5 250.5t104.5 250t247.5 105t247 -105t104 -250t-104 -250.5t-247 -105.5zM404 48q117 0 201.5 87.5t84.5 208.5q0 120 -84.5 207.5t-201.5 87.5t-202 -87.5t-85 -207.5
q0 -121 85 -208.5t202 -87.5z" />
    <glyph glyph-name="Otilde" unicode="&#xd5;" horiz-adv-x="807" 
d="M468 749q-32 0 -71.5 33t-57.5 33q-40 0 -52 -72l-42 7q14 115 94 115q32 0 71.5 -33t57.5 -33q39 0 52 72l42 -7q-14 -115 -94 -115zM404 -12q-143 0 -247.5 105.5t-104.5 250.5t104.5 250t247.5 105t247 -105t104 -250t-104 -250.5t-247 -105.5zM404 48
q117 0 201.5 87.5t84.5 208.5q0 120 -84.5 207.5t-201.5 87.5t-202 -87.5t-85 -207.5q0 -121 85 -208.5t202 -87.5z" />
    <glyph glyph-name="Odieresis" unicode="&#xd6;" horiz-adv-x="807" 
d="M308 772q-17 0 -29 12t-12 29q0 16 12 28.5t29 12.5q16 0 28.5 -12.5t12.5 -28.5q0 -17 -12.5 -29t-28.5 -12zM500 772q-17 0 -29 12t-12 29q0 16 12 28.5t29 12.5q16 0 28.5 -12.5t12.5 -28.5q0 -17 -12.5 -29t-28.5 -12zM404 -12q-143 0 -247.5 105.5t-104.5 250.5
t104.5 250t247.5 105t247 -105t104 -250t-104 -250.5t-247 -105.5zM404 48q117 0 201.5 87.5t84.5 208.5q0 120 -84.5 207.5t-201.5 87.5t-202 -87.5t-85 -207.5q0 -121 85 -208.5t202 -87.5z" />
    <glyph glyph-name="multiply" unicode="&#xd7;" horiz-adv-x="532" 
d="M450 475l-140 -141l140 -140l-44 -44l-140 140l-140 -140l-44 44l140 140l-140 141l44 43l140 -140l141 140z" />
    <glyph glyph-name="Oslash" unicode="&#xd8;" horiz-adv-x="807" 
d="M656 589q99 -104 99 -245q0 -145 -104 -250.5t-247 -105.5q-116 0 -211 73l-53 -61h-73l86 98q-101 104 -101 246q0 145 104.5 250t247.5 105q117 0 211 -73l53 61h73zM117 344q0 -114 77 -199l380 435q-77 59 -170 59q-117 0 -202 -87.5t-85 -207.5zM404 48
q117 0 201.5 87.5t84.5 208.5q0 112 -76 198l-380 -435q77 -59 170 -59z" />
    <glyph glyph-name="Ugrave" unicode="&#xd9;" horiz-adv-x="732" 
d="M382 746l-134 128l66 15l123 -143h-55zM366 -12q-123 0 -201.5 81.5t-78.5 208.5v409h64v-409q0 -101 60.5 -166t155.5 -65t155.5 65t60.5 166v409h64v-409q0 -127 -78.5 -208.5t-201.5 -81.5z" />
    <glyph glyph-name="Uacute" unicode="&#xda;" horiz-adv-x="732" 
d="M289 746l122 143l67 -15l-134 -128h-55zM366 -12q-123 0 -201.5 81.5t-78.5 208.5v409h64v-409q0 -101 60.5 -166t155.5 -65t155.5 65t60.5 166v409h64v-409q0 -127 -78.5 -208.5t-201.5 -81.5z" />
    <glyph glyph-name="Ucircumflex" unicode="&#xdb;" horiz-adv-x="732" 
d="M233 746l102 137h61l104 -137h-53l-81 93l-80 -93h-53zM366 -12q-123 0 -201.5 81.5t-78.5 208.5v409h64v-409q0 -101 60.5 -166t155.5 -65t155.5 65t60.5 166v409h64v-409q0 -127 -78.5 -208.5t-201.5 -81.5z" />
    <glyph glyph-name="Udieresis" unicode="&#xdc;" horiz-adv-x="732" 
d="M270 772q-17 0 -29 12t-12 29q0 16 12 28.5t29 12.5q16 0 28.5 -12.5t12.5 -28.5q0 -17 -12.5 -29t-28.5 -12zM462 772q-17 0 -29 12t-12 29q0 16 12 28.5t29 12.5q16 0 28.5 -12.5t12.5 -28.5q0 -17 -12.5 -29t-28.5 -12zM366 -12q-123 0 -201.5 81.5t-78.5 208.5v409
h64v-409q0 -101 60.5 -166t155.5 -65t155.5 65t60.5 166v409h64v-409q0 -127 -78.5 -208.5t-201.5 -81.5z" />
    <glyph glyph-name="Yacute" unicode="&#xdd;" horiz-adv-x="658" 
d="M252 746l122 143l67 -15l-134 -128h-55zM296 0v280l-278 407h80l231 -344l233 344h78l-277 -407v-280h-67z" />
    <glyph glyph-name="Thorn" unicode="&#xde;" horiz-adv-x="642" 
d="M79 0v687h65v-124h217q106 0 177 -61t71 -156t-71 -156t-177 -61h-218v-129h-64zM143 191h207q87 0 141 42t54 113t-54 113t-141 42h-207v-310z" />
    <glyph glyph-name="germandbls" unicode="&#xdf;" horiz-adv-x="562" 
d="M84 0v525q0 78 58 130t144 52t143.5 -52t57.5 -130q0 -108 -94 -160q56 -27 88.5 -74t32.5 -102q0 -81 -56.5 -135t-140.5 -54h-90v59h70q65 0 108.5 39.5t43.5 98.5t-43 96.5t-110 37.5h-69v59h59q59 0 97.5 37t38.5 90q0 56 -39.5 93.5t-97.5 37.5t-97.5 -38.5
t-39.5 -95.5v-514h-64z" />
    <glyph glyph-name="agrave" unicode="&#xe0;" horiz-adv-x="567" 
d="M363 576h-55l-134 128l66 15zM283 529q99 0 153 -58.5t54 -155.5v-315h-62v82q-27 -44 -81 -69t-109 -25q-82 0 -135 45.5t-53 119.5q0 76 58.5 124t146.5 48q78 0 173 -31v21q0 67 -35 113t-115 46q-70 0 -153 -46l-25 51q94 50 183 50zM248 44q60 0 113 31t67 87v83
q-85 26 -164 26q-65 0 -109 -32.5t-44 -82.5q0 -51 39 -81.5t98 -30.5z" />
    <glyph glyph-name="aacute" unicode="&#xe1;" horiz-adv-x="567" 
d="M404 704l-134 -128h-55l122 143zM283 529q99 0 153 -58.5t54 -155.5v-315h-62v82q-27 -44 -81 -69t-109 -25q-82 0 -135 45.5t-53 119.5q0 76 58.5 124t146.5 48q78 0 173 -31v21q0 67 -35 113t-115 46q-70 0 -153 -46l-25 51q94 50 183 50zM248 44q60 0 113 31t67 87v83
q-85 26 -164 26q-65 0 -109 -32.5t-44 -82.5q0 -51 39 -81.5t98 -30.5z" />
    <glyph glyph-name="acircumflex" unicode="&#xe2;" horiz-adv-x="567" 
d="M292 669l-80 -93h-53l102 137h61l104 -137h-53zM283 529q99 0 153 -58.5t54 -155.5v-315h-62v82q-27 -44 -81 -69t-109 -25q-82 0 -135 45.5t-53 119.5q0 76 58.5 124t146.5 48q78 0 173 -31v21q0 67 -35 113t-115 46q-70 0 -153 -46l-25 51q94 50 183 50zM248 44
q60 0 113 31t67 87v83q-85 26 -164 26q-65 0 -109 -32.5t-44 -82.5q0 -51 39 -81.5t98 -30.5z" />
    <glyph glyph-name="atilde" unicode="&#xe3;" horiz-adv-x="567" 
d="M227 645q-40 0 -52 -72l-42 7q14 115 94 115q32 0 71.5 -33t57.5 -33q39 0 52 72l42 -7q-14 -115 -94 -115q-32 0 -71.5 33t-57.5 33zM283 529q99 0 153 -58.5t54 -155.5v-315h-62v82q-27 -44 -81 -69t-109 -25q-82 0 -135 45.5t-53 119.5q0 76 58.5 124t146.5 48
q78 0 173 -31v21q0 67 -35 113t-115 46q-70 0 -153 -46l-25 51q94 50 183 50zM248 44q60 0 113 31t67 87v83q-85 26 -164 26q-65 0 -109 -32.5t-44 -82.5q0 -51 39 -81.5t98 -30.5z" />
    <glyph glyph-name="adieresis" unicode="&#xe4;" horiz-adv-x="567" 
d="M196 602q-17 0 -29 12t-12 29q0 16 12 28.5t29 12.5q16 0 28.5 -12.5t12.5 -28.5q0 -17 -12.5 -29t-28.5 -12zM388 602q-17 0 -29 12t-12 29q0 16 12 28.5t29 12.5q16 0 28.5 -12.5t12.5 -28.5q0 -17 -12.5 -29t-28.5 -12zM283 529q99 0 153 -58.5t54 -155.5v-315h-62v82
q-27 -44 -81 -69t-109 -25q-82 0 -135 45.5t-53 119.5q0 76 58.5 124t146.5 48q78 0 173 -31v21q0 67 -35 113t-115 46q-70 0 -153 -46l-25 51q94 50 183 50zM248 44q60 0 113 31t67 87v83q-85 26 -164 26q-65 0 -109 -32.5t-44 -82.5q0 -51 39 -81.5t98 -30.5z" />
    <glyph glyph-name="aring" unicode="&#xe5;" horiz-adv-x="567" 
d="M292 589q-43 0 -73 30t-30 73t30 73t73 30t73 -30t30 -73t-30 -73t-73 -30zM292 754q-26 0 -44 -18t-18 -44t18 -44t44 -18t44 18t18 44t-18 44t-44 18zM283 529q99 0 153 -58.5t54 -155.5v-315h-62v82q-27 -44 -81 -69t-109 -25q-82 0 -135 45.5t-53 119.5
q0 76 58.5 124t146.5 48q78 0 173 -31v21q0 67 -35 113t-115 46q-70 0 -153 -46l-25 51q94 50 183 50zM248 44q60 0 113 31t67 87v83q-85 26 -164 26q-65 0 -109 -32.5t-44 -82.5q0 -51 39 -81.5t98 -30.5z" />
    <glyph glyph-name="ae" unicode="&#xe6;" horiz-adv-x="975" 
d="M687 45q49 0 97 18t75 47l39 -42q-32 -35 -92.5 -57.5t-118.5 -22.5q-67 0 -126 35t-94 94q-30 -59 -88.5 -94t-130.5 -35q-91 0 -144.5 44.5t-53.5 120.5t58.5 124t146.5 48q78 0 173 -31v21q0 67 -35 113t-115 46q-70 0 -153 -46l-25 51q94 50 183 50q142 0 189 -116
q35 54 90.5 85t120.5 31q114 0 179.5 -80t65.5 -215h-437q8 -81 63 -135t133 -54zM685 472q-76 0 -129.5 -50.5t-63.5 -130.5h374q-6 81 -54 131t-127 50zM258 44q71 0 120.5 47.5t49.5 115.5v38q-85 26 -164 26q-65 0 -109 -32.5t-44 -82.5q0 -52 39.5 -82t107.5 -30z" />
    <glyph glyph-name="ccedilla" unicode="&#xe7;" horiz-adv-x="535" 
d="M326 -45q29 0 48.5 -18.5t19.5 -46.5q0 -36 -28 -59t-68 -23q-51 0 -86 28l18 39q28 -24 65 -24q22 0 37 12t15 29q0 16 -10.5 25.5t-29.5 9.5q-20 0 -34 -11l-16 17l24 57q-100 12 -166.5 88.5t-66.5 180.5q0 113 77.5 191.5t187.5 78.5q103 0 181 -76l-43 -42
q-58 61 -138 61q-84 0 -142 -62t-58 -151q0 -90 58 -152t142 -62q82 0 140 63l43 -42q-70 -70 -168 -78l-14 -34q4 1 12 1z" />
    <glyph glyph-name="egrave" unicode="&#xe8;" horiz-adv-x="595" 
d="M374 576h-55l-134 128l66 15zM307 45q49 0 97 18t75 47l39 -42q-32 -35 -92.5 -57.5t-118.5 -22.5q-105 0 -182 78.5t-77 193.5q0 114 74.5 191.5t180.5 77.5q114 0 179.5 -80t65.5 -215h-437q8 -81 63 -135t133 -54zM305 472q-76 0 -129.5 -50.5t-63.5 -130.5h374
q-6 81 -54 131t-127 50z" />
    <glyph glyph-name="eacute" unicode="&#xe9;" horiz-adv-x="595" 
d="M415 704l-134 -128h-55l122 143zM307 45q49 0 97 18t75 47l39 -42q-32 -35 -92.5 -57.5t-118.5 -22.5q-105 0 -182 78.5t-77 193.5q0 114 74.5 191.5t180.5 77.5q114 0 179.5 -80t65.5 -215h-437q8 -81 63 -135t133 -54zM305 472q-76 0 -129.5 -50.5t-63.5 -130.5h374
q-6 81 -54 131t-127 50z" />
    <glyph glyph-name="ecircumflex" unicode="&#xea;" horiz-adv-x="595" 
d="M303 669l-80 -93h-53l102 137h61l104 -137h-53zM307 45q49 0 97 18t75 47l39 -42q-32 -35 -92.5 -57.5t-118.5 -22.5q-105 0 -182 78.5t-77 193.5q0 114 74.5 191.5t180.5 77.5q114 0 179.5 -80t65.5 -215h-437q8 -81 63 -135t133 -54zM305 472q-76 0 -129.5 -50.5
t-63.5 -130.5h374q-6 81 -54 131t-127 50z" />
    <glyph glyph-name="edieresis" unicode="&#xeb;" horiz-adv-x="595" 
d="M207 602q-17 0 -29 12t-12 29q0 16 12 28.5t29 12.5q16 0 28.5 -12.5t12.5 -28.5q0 -17 -12 -29t-29 -12zM399 602q-17 0 -29 12t-12 29q0 16 12 28.5t29 12.5q16 0 28.5 -12.5t12.5 -28.5q0 -17 -12 -29t-29 -12zM307 45q49 0 97 18t75 47l39 -42q-32 -35 -92.5 -57.5
t-118.5 -22.5q-105 0 -182 78.5t-77 193.5q0 114 74.5 191.5t180.5 77.5q114 0 179.5 -80t65.5 -215h-437q8 -81 63 -135t133 -54zM305 472q-76 0 -129.5 -50.5t-63.5 -130.5h374q-6 81 -54 131t-127 50z" />
    <glyph glyph-name="igrave" unicode="&#xec;" horiz-adv-x="212" 
d="M80 576l-134 128l66 15l123 -143h-55zM75 0v517h62v-517h-62z" />
    <glyph glyph-name="iacute" unicode="&#xed;" horiz-adv-x="212" 
d="M78 576l122 143l67 -15l-134 -128h-55zM75 0v517h62v-517h-62z" />
    <glyph glyph-name="icircumflex" unicode="&#xee;" horiz-adv-x="212" 
d="M-27 576l102 137h61l104 -137h-53l-81 93l-80 -93h-53zM75 0v517h62v-517h-62z" />
    <glyph glyph-name="idieresis" unicode="&#xef;" horiz-adv-x="212" 
d="M10 602q-17 0 -29 12t-12 29q0 16 12 28.5t29 12.5q16 0 28.5 -12.5t12.5 -28.5q0 -17 -12.5 -29t-28.5 -12zM202 602q-17 0 -29 12t-12 29q0 16 12 28.5t29 12.5q16 0 28.5 -12.5t12.5 -28.5q0 -17 -12.5 -29t-28.5 -12zM75 0v517h62v-517h-62z" />
    <glyph glyph-name="eth" unicode="&#xf0;" horiz-adv-x="622" 
d="M380 611q182 -166 182 -347q0 -122 -70 -199t-180 -77t-181 73t-71 186q0 111 66.5 182t170.5 71q103 0 171 -84q-43 84 -142 171l-124 -55l-23 52l97 43q-31 26 -86 62l61 26q39 -28 82 -63l98 44l23 -52zM312 45q81 0 133 56.5t52 144.5q0 86 -51.5 142t-135.5 56
q-82 0 -134 -55.5t-52 -142.5q0 -88 53 -144.5t135 -56.5z" />
    <glyph glyph-name="ntilde" unicode="&#xf1;" 
d="M235 645q-40 0 -52 -72l-42 7q14 115 94 115q32 0 71.5 -33t57.5 -33q39 0 52 72l42 -7q-14 -115 -94 -115q-32 0 -71.5 33t-57.5 33zM309 529q85 0 139.5 -55.5t54.5 -141.5v-332h-62v324q0 65 -39 106.5t-101 41.5q-68 0 -115 -41.5t-47 -101.5v-329h-62v517h62v-85
q21 43 67.5 70t102.5 27z" />
    <glyph glyph-name="ograve" unicode="&#xf2;" horiz-adv-x="631" 
d="M332 576l-134 128l66 15l123 -143h-55zM316 -12q-109 0 -188.5 80.5t-79.5 190.5t79.5 190t188.5 80t188 -80t79 -190t-79 -190.5t-188 -80.5zM316 45q83 0 142.5 63t59.5 151q0 87 -59.5 150t-142.5 63t-143 -63t-60 -150q0 -88 60 -151t143 -63z" />
    <glyph glyph-name="oacute" unicode="&#xf3;" horiz-adv-x="631" 
d="M239 576l122 143l67 -15l-134 -128h-55zM316 -12q-109 0 -188.5 80.5t-79.5 190.5t79.5 190t188.5 80t188 -80t79 -190t-79 -190.5t-188 -80.5zM316 45q83 0 142.5 63t59.5 151q0 87 -59.5 150t-142.5 63t-143 -63t-60 -150q0 -88 60 -151t143 -63z" />
    <glyph glyph-name="ocircumflex" unicode="&#xf4;" horiz-adv-x="631" 
d="M183 576l102 137h61l104 -137h-53l-81 93l-80 -93h-53zM316 -12q-109 0 -188.5 80.5t-79.5 190.5t79.5 190t188.5 80t188 -80t79 -190t-79 -190.5t-188 -80.5zM316 45q83 0 142.5 63t59.5 151q0 87 -59.5 150t-142.5 63t-143 -63t-60 -150q0 -88 60 -151t143 -63z" />
    <glyph glyph-name="otilde" unicode="&#xf5;" horiz-adv-x="631" 
d="M380 579q-32 0 -71.5 33t-57.5 33q-40 0 -52 -72l-42 7q14 115 94 115q32 0 71.5 -33t57.5 -33q39 0 52 72l42 -7q-14 -115 -94 -115zM316 -12q-109 0 -188.5 80.5t-79.5 190.5t79.5 190t188.5 80t188 -80t79 -190t-79 -190.5t-188 -80.5zM316 45q83 0 142.5 63t59.5 151
q0 87 -59.5 150t-142.5 63t-143 -63t-60 -150q0 -88 60 -151t143 -63z" />
    <glyph glyph-name="odieresis" unicode="&#xf6;" horiz-adv-x="631" 
d="M220 602q-17 0 -29 12t-12 29q0 16 12 28.5t29 12.5q16 0 28.5 -12.5t12.5 -28.5q0 -17 -12.5 -29t-28.5 -12zM412 602q-17 0 -29 12t-12 29q0 16 12 28.5t29 12.5q16 0 28.5 -12.5t12.5 -28.5q0 -17 -12.5 -29t-28.5 -12zM316 -12q-109 0 -188.5 80.5t-79.5 190.5
t79.5 190t188.5 80t188 -80t79 -190t-79 -190.5t-188 -80.5zM316 45q83 0 142.5 63t59.5 151q0 87 -59.5 150t-142.5 63t-143 -63t-60 -150q0 -88 60 -151t143 -63z" />
    <glyph glyph-name="divide" unicode="&#xf7;" horiz-adv-x="593" 
d="M298 450q-20 0 -33.5 13.5t-13.5 33.5q0 18 13.5 31.5t33.5 13.5q19 0 32 -13.5t13 -31.5q0 -20 -13 -33.5t-32 -13.5zM67 303v62h459v-62h-459zM298 126q-20 0 -33.5 13.5t-13.5 33.5q0 18 13.5 31.5t33.5 13.5q19 0 32 -13.5t13 -31.5q0 -20 -13 -33.5t-32 -13.5z" />
    <glyph glyph-name="oslash" unicode="&#xf8;" horiz-adv-x="631" 
d="M510 442q73 -78 73 -183q0 -110 -79 -190.5t-188 -80.5q-83 0 -151 49l-32 -37h-73l63 73q-75 80 -75 186q0 110 79.5 190t188.5 80q82 0 153 -50l32 38h73zM113 259q0 -77 49 -139l268 314q-52 38 -114 38q-83 0 -143 -63t-60 -150zM316 45q83 0 142.5 63t59.5 151
q0 77 -48 136l-267 -313q51 -37 113 -37z" />
    <glyph glyph-name="ugrave" unicode="&#xf9;" 
d="M359 576h-55l-134 128l66 15zM440 517h62v-517h-62v85q-21 -43 -67.5 -70t-102.5 -27q-85 0 -139.5 55.5t-54.5 141.5v332h62v-324q0 -65 39 -106.5t101 -41.5q68 0 115 41.5t47 101.5v329z" />
    <glyph glyph-name="uacute" unicode="&#xfa;" 
d="M400 704l-134 -128h-55l122 143zM440 517h62v-517h-62v85q-21 -43 -67.5 -70t-102.5 -27q-85 0 -139.5 55.5t-54.5 141.5v332h62v-324q0 -65 39 -106.5t101 -41.5q68 0 115 41.5t47 101.5v329z" />
    <glyph glyph-name="ucircumflex" unicode="&#xfb;" 
d="M288 669l-80 -93h-53l102 137h61l104 -137h-53zM440 517h62v-517h-62v85q-21 -43 -67.5 -70t-102.5 -27q-85 0 -139.5 55.5t-54.5 141.5v332h62v-324q0 -65 39 -106.5t101 -41.5q68 0 115 41.5t47 101.5v329z" />
    <glyph glyph-name="udieresis" unicode="&#xfc;" 
d="M192 602q-17 0 -29 12t-12 29q0 16 12 28.5t29 12.5q16 0 28.5 -12.5t12.5 -28.5q0 -17 -12.5 -29t-28.5 -12zM384 602q-17 0 -29 12t-12 29q0 16 12 28.5t29 12.5q16 0 28.5 -12.5t12.5 -28.5q0 -17 -12.5 -29t-28.5 -12zM440 517h62v-517h-62v85q-21 -43 -67.5 -70
t-102.5 -27q-85 0 -139.5 55.5t-54.5 141.5v332h62v-324q0 -65 39 -106.5t101 -41.5q68 0 115 41.5t47 101.5v329z" />
    <glyph glyph-name="yacute" unicode="&#xfd;" horiz-adv-x="584" 
d="M212 576l122 143l67 -15l-134 -128h-55zM144 -180q-45 0 -82 17l16 55q29 -15 64 -15q57 0 84 48l31 67l-227 525h68l191 -451l181 451h67l-238 -581q-24 -60 -62 -87.5t-93 -28.5z" />
    <glyph glyph-name="thorn" unicode="&#xfe;" horiz-adv-x="628" 
d="M338 529q100 0 168 -77.5t68 -192.5q0 -116 -68 -193.5t-168 -77.5q-128 0 -193 113v-273h-62v871h62v-283q65 113 193 113zM327 45q78 0 130.5 61.5t52.5 152.5t-52.5 152t-130.5 61q-80 0 -131 -59.5t-51 -153.5t51 -154t131 -60z" />
    <glyph glyph-name="ydieresis" unicode="&#xff;" horiz-adv-x="584" 
d="M193 602q-17 0 -29 12t-12 29q0 16 12 28.5t29 12.5q16 0 28.5 -12.5t12.5 -28.5q0 -17 -12 -29t-29 -12zM385 602q-17 0 -29 12t-12 29q0 16 12 28.5t29 12.5q16 0 28.5 -12.5t12.5 -28.5q0 -17 -12 -29t-29 -12zM144 -180q-45 0 -82 17l16 55q29 -15 64 -15q57 0 84 48
l31 67l-227 525h68l191 -451l181 451h67l-238 -581q-24 -60 -62 -87.5t-93 -28.5z" />
    <glyph glyph-name="Amacron" unicode="&#x100;" horiz-adv-x="740" 
d="M525 816v-49h-310v49h310zM638 0l-71 162h-394l-71 -162h-70l303 687h70l303 -687h-70zM201 224h338l-169 384z" />
    <glyph glyph-name="amacron" unicode="&#x101;" horiz-adv-x="567" 
d="M447 646v-49h-310v49h310zM283 529q99 0 153 -58.5t54 -155.5v-315h-62v82q-27 -44 -81 -69t-109 -25q-82 0 -135 45.5t-53 119.5q0 76 58.5 124t146.5 48q78 0 173 -31v21q0 67 -35 113t-115 46q-70 0 -153 -46l-25 51q94 50 183 50zM248 44q60 0 113 31t67 87v83
q-85 26 -164 26q-65 0 -109 -32.5t-44 -82.5q0 -51 39 -81.5t98 -30.5z" />
    <glyph glyph-name="Abreve" unicode="&#x102;" horiz-adv-x="740" 
d="M516 819q-60 -60 -146 -60q-84 0 -146 60l40 40q46 -44 106 -44t106 44zM638 0l-71 162h-394l-71 -162h-70l303 687h70l303 -687h-70zM201 224h338l-169 384z" />
    <glyph glyph-name="abreve" unicode="&#x103;" horiz-adv-x="567" 
d="M438 649q-60 -60 -146 -60q-84 0 -146 60l40 40q46 -44 106 -44t106 44zM283 529q99 0 153 -58.5t54 -155.5v-315h-62v82q-27 -44 -81 -69t-109 -25q-82 0 -135 45.5t-53 119.5q0 76 58.5 124t146.5 48q78 0 173 -31v21q0 67 -35 113t-115 46q-70 0 -153 -46l-25 51
q94 50 183 50zM248 44q60 0 113 31t67 87v83q-85 26 -164 26q-65 0 -109 -32.5t-44 -82.5q0 -51 39 -81.5t98 -30.5z" />
    <glyph glyph-name="Aogonek" unicode="&#x104;" horiz-adv-x="740" 
d="M759 -101l28 -43q-35 -29 -84 -29q-47 0 -76.5 28.5t-29.5 76.5q0 50 38 76l-68 154h-394l-71 -162h-70l303 687h70l303 -687q-28 0 -45 -17t-17 -44q0 -29 16.5 -45t45.5 -16q32 0 51 21zM201 224h338l-169 384z" />
    <glyph glyph-name="aogonek" unicode="&#x105;" horiz-adv-x="567" 
d="M541 -101l28 -43q-35 -29 -84 -29q-47 0 -76.5 28.5t-29.5 76.5q0 27 13.5 49.5t35.5 33.5v67q-27 -44 -81 -69t-109 -25q-82 0 -135 45.5t-53 119.5q0 76 58.5 124t146.5 48q78 0 173 -31v21q0 67 -35 113t-115 46q-70 0 -153 -46l-25 51q94 50 183 50q99 0 153 -58.5
t54 -155.5v-315q-28 0 -45 -17t-17 -44q0 -29 16.5 -45t45.5 -16q32 0 51 21zM248 44q60 0 113 31t67 87v83q-85 26 -164 26q-65 0 -109 -32.5t-44 -82.5q0 -51 39 -81.5t98 -30.5z" />
    <glyph glyph-name="Cacute" unicode="&#x106;" horiz-adv-x="680" 
d="M310 746l122 143l67 -15l-134 -128h-55zM404 -12q-143 0 -247.5 105.5t-104.5 250.5t104.5 250t247.5 105q144 0 247 -105l-44 -44q-86 89 -203 89t-202 -87.5t-85 -207.5q0 -121 85 -208.5t202 -87.5q118 0 203 90l44 -45q-105 -105 -247 -105z" />
    <glyph glyph-name="cacute" unicode="&#x107;" horiz-adv-x="535" 
d="M216 576l122 143l67 -15l-134 -128h-55zM313 -12q-110 0 -187.5 79t-77.5 192t77.5 191.5t187.5 78.5q103 0 181 -76l-43 -42q-58 61 -138 61q-84 0 -142 -62t-58 -151q0 -90 58 -152t142 -62q82 0 140 63l43 -42q-78 -78 -183 -78z" />
    <glyph glyph-name="Ccaron" unicode="&#x10c;" horiz-adv-x="680" 
d="M356 746l-102 137h53l80 -93l81 93h53l-104 -137h-61zM404 -12q-143 0 -247.5 105.5t-104.5 250.5t104.5 250t247.5 105q144 0 247 -105l-44 -44q-86 89 -203 89t-202 -87.5t-85 -207.5q0 -121 85 -208.5t202 -87.5q118 0 203 90l44 -45q-105 -105 -247 -105z" />
    <glyph glyph-name="ccaron" unicode="&#x10d;" horiz-adv-x="535" 
d="M262 576l-102 137h53l80 -93l81 93h53l-104 -137h-61zM313 -12q-110 0 -187.5 79t-77.5 192t77.5 191.5t187.5 78.5q103 0 181 -76l-43 -42q-58 61 -138 61q-84 0 -142 -62t-58 -151q0 -90 58 -152t142 -62q82 0 140 63l43 -42q-78 -78 -183 -78z" />
    <glyph glyph-name="Dcaron" unicode="&#x10e;" horiz-adv-x="756" 
d="M296 746l-102 137h53l80 -93l81 93h53l-104 -137h-61zM94 0v687h233q160 0 262.5 -96t102.5 -247t-102.5 -247.5t-262.5 -96.5h-233zM158 59h169q132 0 216.5 80t84.5 205t-84.5 204.5t-216.5 79.5h-169v-569z" />
    <glyph glyph-name="dcaron" unicode="&#x10f;" horiz-adv-x="628" 
d="M483 416v283h62v-699h-62v101q-65 -113 -193 -113q-100 0 -168 77.5t-68 193.5q0 115 68 192.5t168 77.5q128 0 193 -113zM661 699q20 0 32.5 -16.5t12.5 -42.5q0 -47 -63 -127l-30 22q38 43 47 83q-17 0 -28.5 12t-11.5 29t11.5 28.5t29.5 11.5zM301 45q80 0 131 60
t51 154t-51 153.5t-131 59.5q-78 0 -130.5 -61t-52.5 -152t52.5 -152.5t130.5 -61.5z" />
    <glyph glyph-name="Dcroat" unicode="&#x110;" horiz-adv-x="778" 
d="M349 687q160 0 262.5 -96t102.5 -247t-102.5 -247.5t-262.5 -96.5h-233v319h-74v62h74v306h233zM349 59q132 0 216.5 80t84.5 205t-84.5 204.5t-216.5 79.5h-169v-247h211l-1 -62h-210v-260h169z" />
    <glyph glyph-name="dcroat" unicode="&#x111;" horiz-adv-x="647" 
d="M610 633v-46h-65v-587h-62v101q-65 -113 -193 -113q-100 0 -168 77.5t-68 193.5q0 115 68 192.5t168 77.5q128 0 193 -113v171h-176v46h176v66h62v-66h65zM301 45q80 0 131 60t51 154t-51 153.5t-131 59.5q-78 0 -130.5 -61t-52.5 -152t52.5 -152.5t130.5 -61.5z" />
    <glyph glyph-name="Emacron" unicode="&#x112;" horiz-adv-x="613" 
d="M474 816v-49h-310v49h310zM558 626h-414v-245h376v-62h-376v-258h414v-61h-479v687h479v-61z" />
    <glyph glyph-name="emacron" unicode="&#x113;" horiz-adv-x="595" 
d="M458 646v-49h-310v49h310zM307 45q49 0 97 18t75 47l39 -42q-32 -35 -92.5 -57.5t-118.5 -22.5q-105 0 -182 78.5t-77 193.5q0 114 74.5 191.5t180.5 77.5q114 0 179.5 -80t65.5 -215h-437q8 -81 63 -135t133 -54zM305 472q-76 0 -129.5 -50.5t-63.5 -130.5h374
q-6 81 -54 131t-127 50z" />
    <glyph glyph-name="Edotaccent" unicode="&#x116;" horiz-adv-x="613" 
d="M319 772q-17 0 -29 12t-12 29q0 16 12 28.5t29 12.5q16 0 28 -12.5t12 -28.5q0 -17 -12 -29t-28 -12zM558 626h-414v-245h376v-62h-376v-258h414v-61h-479v687h479v-61z" />
    <glyph glyph-name="edotaccent" unicode="&#x117;" horiz-adv-x="595" 
d="M303 602q-17 0 -29 12t-12 29q0 16 12 28.5t29 12.5q16 0 28 -12.5t12 -28.5q0 -17 -12 -29t-28 -12zM307 45q49 0 97 18t75 47l39 -42q-32 -35 -92.5 -57.5t-118.5 -22.5q-105 0 -182 78.5t-77 193.5q0 114 74.5 191.5t180.5 77.5q114 0 179.5 -80t65.5 -215h-437
q8 -81 63 -135t133 -54zM305 472q-76 0 -129.5 -50.5t-63.5 -130.5h374q-6 81 -54 131t-127 50z" />
    <glyph glyph-name="Eogonek" unicode="&#x118;" horiz-adv-x="613" 
d="M558 626h-414v-245h376v-62h-376v-258h414v-61h-79q-28 0 -45 -17t-17 -44q0 -29 16.5 -45t45.5 -16q32 0 51 21l28 -43q-35 -29 -84 -29q-47 0 -76.5 28.5t-29.5 76.5q0 40 28 68h-317v687h479v-61z" />
    <glyph glyph-name="eogonek" unicode="&#x119;" horiz-adv-x="595" 
d="M396 1q-19 -17 -19 -46t16.5 -45t45.5 -16q32 0 51 21l28 -43q-35 -29 -84 -29q-47 0 -76.5 28.5t-29.5 76.5q0 22 9 42q-20 -2 -30 -2q-105 0 -182 78.5t-77 193.5q0 114 74.5 191.5t180.5 77.5q114 0 179.5 -80t65.5 -215h-437q8 -81 63 -135t133 -54q49 0 97 18t75 47
l39 -42q-41 -45 -122 -67zM305 472q-76 0 -129.5 -50.5t-63.5 -130.5h374q-6 81 -54 131t-127 50z" />
    <glyph glyph-name="Ecaron" unicode="&#x11a;" horiz-adv-x="613" 
d="M349 746h-61l-102 137h53l80 -93l81 93h53zM558 626h-414v-245h376v-62h-376v-258h414v-61h-479v687h479v-61z" />
    <glyph glyph-name="ecaron" unicode="&#x11b;" horiz-adv-x="595" 
d="M333 576h-61l-102 137h53l80 -93l81 93h53zM307 45q49 0 97 18t75 47l39 -42q-32 -35 -92.5 -57.5t-118.5 -22.5q-105 0 -182 78.5t-77 193.5q0 114 74.5 191.5t180.5 77.5q114 0 179.5 -80t65.5 -215h-437q8 -81 63 -135t133 -54zM305 472q-76 0 -129.5 -50.5
t-63.5 -130.5h374q-6 81 -54 131t-127 50z" />
    <glyph glyph-name="Gbreve" unicode="&#x11e;" horiz-adv-x="744" 
d="M550 819q-60 -60 -146 -60q-84 0 -146 60l40 40q46 -44 106 -44t106 44zM395 294v61h275v-263q-49 -47 -121 -75.5t-145 -28.5q-143 0 -247.5 105.5t-104.5 250.5t104.5 250t247.5 105q73 0 145 -28t121 -76l-44 -45q-40 41 -100.5 65t-121.5 24q-117 0 -202 -87.5
t-85 -207.5q0 -121 85 -208.5t202 -87.5q114 0 202 70v176h-211z" />
    <glyph glyph-name="gbreve" unicode="&#x11f;" horiz-adv-x="623" 
d="M458 649q-60 -60 -146 -60q-84 0 -146 60l40 40q46 -44 106 -44t106 44zM478 517h62v-462q0 -100 -69.5 -163.5t-178.5 -63.5q-60 0 -116.5 19t-92.5 50l28 50q69 -62 174 -62q89 0 141 45.5t52 124.5v94q-30 -53 -81.5 -82t-115.5 -29q-101 0 -167.5 70t-66.5 176
q0 105 67 175t167 70q134 0 197 -110v98zM292 95q81 0 133.5 53t52.5 136q0 82 -52.5 135t-133.5 53q-77 0 -129 -54t-52 -134q0 -81 52 -135t129 -54z" />
    <glyph glyph-name="Gcommaaccent" unicode="&#x122;" horiz-adv-x="744" 
d="M395 294v61h275v-263q-49 -47 -121 -75.5t-145 -28.5q-143 0 -247.5 105.5t-104.5 250.5t104.5 250t247.5 105q73 0 145 -28t121 -76l-44 -45q-40 41 -100.5 65t-121.5 24q-117 0 -202 -87.5t-85 -207.5q0 -121 85 -208.5t202 -87.5q114 0 202 70v176h-211zM401 -87
q20 0 32.5 -16.5t12.5 -42.5q0 -47 -63 -127l-30 22q38 43 47 83q-17 0 -28.5 12t-11.5 29t11.5 28.5t29.5 11.5z" />
    <glyph glyph-name="gcommaaccent" unicode="&#x123;" horiz-adv-x="623" 
d="M303 603q-20 0 -32.5 16.5t-12.5 42.5q0 47 63 127l30 -22q-38 -43 -47 -83q17 0 28.5 -12t11.5 -29t-11.5 -28.5t-29.5 -11.5zM478 517h62v-462q0 -100 -69.5 -163.5t-178.5 -63.5q-60 0 -116.5 19t-92.5 50l28 50q69 -62 174 -62q89 0 141 45.5t52 124.5v94
q-30 -53 -81.5 -82t-115.5 -29q-101 0 -167.5 70t-66.5 176q0 105 67 175t167 70q134 0 197 -110v98zM292 95q81 0 133.5 53t52.5 136q0 82 -52.5 135t-133.5 53q-77 0 -129 -54t-52 -134q0 -81 52 -135t129 -54z" />
    <glyph glyph-name="Imacron" unicode="&#x12a;" horiz-adv-x="222" 
d="M-44 767v49h310v-49h-310zM79 0v687h64v-687h-64z" />
    <glyph glyph-name="imacron" unicode="&#x12b;" horiz-adv-x="212" 
d="M-49 597v49h310v-49h-310zM75 0v517h62v-517h-62z" />
    <glyph glyph-name="Iogonek" unicode="&#x12e;" horiz-adv-x="222" 
d="M194 -101l28 -43q-35 -29 -84 -29q-47 0 -76.5 28.5t-29.5 76.5q0 56 47 82v673h64v-687q-28 0 -45 -17t-17 -44q0 -29 16.5 -45t45.5 -16q32 0 51 21z" />
    <glyph glyph-name="iogonek" unicode="&#x12f;" horiz-adv-x="212" 
d="M106 602q-17 0 -29 12t-12 29q0 16 12 28.5t29 12.5q16 0 28 -12.5t12 -28.5q0 -17 -12 -29t-28 -12zM157 -101l28 -43q-35 -29 -84 -29q-47 0 -76.5 28.5t-29.5 76.5q0 31 17.5 55.5t44.5 32.5l18 -7v504h62v-517h-31q-28 0 -45 -17t-17 -44q0 -29 16.5 -45t45.5 -16
q32 0 51 21z" />
    <glyph glyph-name="Idotaccent" unicode="&#x130;" horiz-adv-x="222" 
d="M111 772q-17 0 -29 12t-12 29q0 16 12 28.5t29 12.5q16 0 28 -12.5t12 -28.5q0 -17 -12 -29t-28 -12zM79 0v687h64v-687h-64z" />
    <glyph glyph-name="dotlessi" unicode="&#x131;" horiz-adv-x="212" 
d="M75 0v517h62v-517h-62z" />
    <glyph glyph-name="Kcommaaccent" unicode="&#x136;" horiz-adv-x="644" 
d="M92 0v687h64v-397l363 397h85l-288 -313l308 -374h-83l-269 330l-116 -124v-206h-64zM316 -273l-30 22q38 43 47 83q-17 0 -28.5 12t-11.5 29t11.5 28.5t29.5 11.5q20 0 32.5 -16.5t12.5 -42.5q0 -47 -63 -127z" />
    <glyph glyph-name="kcommaaccent" unicode="&#x137;" horiz-adv-x="529" 
d="M515 517l-233 -237l220 -280h-78l-186 238l-101 -102v-136h-62v699h62v-483l297 301h81zM271 -87q20 0 32.5 -16.5t12.5 -42.5q0 -47 -63 -127l-30 22q38 43 47 83q-17 0 -28.5 12t-11.5 29t11.5 28.5t29.5 11.5z" />
    <glyph glyph-name="Lacute" unicode="&#x139;" horiz-adv-x="548" 
d="M262 874l-134 -128h-55l122 143zM132 61h382v-61h-446v687h64v-626z" />
    <glyph glyph-name="lacute" unicode="&#x13a;" horiz-adv-x="214" 
d="M81 758l122 143l67 -15l-134 -128h-55zM76 0v699h62v-699h-62z" />
    <glyph glyph-name="Lcaron" unicode="&#x13d;" horiz-adv-x="548" 
d="M230 513l-30 22q38 43 47 83q-17 0 -28.5 12t-11.5 29t11.5 28.5t29.5 11.5q20 0 32.5 -16.5t12.5 -42.5q0 -47 -63 -127zM132 61h382v-61h-446v687h64v-626z" />
    <glyph glyph-name="lcaron" unicode="&#x13e;" horiz-adv-x="214" 
d="M76 0v699h62v-699h-62zM236 513l-30 22q38 43 47 83q-17 0 -28.5 12t-11.5 29t11.5 28.5t29.5 11.5q20 0 32.5 -16.5t12.5 -42.5q0 -47 -63 -127z" />
    <glyph glyph-name="Lslash" unicode="&#x141;" horiz-adv-x="607" 
d="M191 61h382v-61h-446v286l-90 -46v64l90 46v337h64v-304l145 75v-64l-145 -75v-258z" />
    <glyph glyph-name="lslash" unicode="&#x142;" horiz-adv-x="294" 
d="M257 416v-64l-81 -42v-310h-62v279l-77 -40v64l77 40v356h62v-325z" />
    <glyph glyph-name="Nacute" unicode="&#x143;" horiz-adv-x="756" 
d="M301 746l122 143l67 -15l-134 -128h-55zM94 0v687h64l440 -583v583h64v-687h-64l-440 583v-583h-64z" />
    <glyph glyph-name="nacute" unicode="&#x144;" 
d="M412 704l-134 -128h-55l122 143zM309 529q85 0 139.5 -55.5t54.5 -141.5v-332h-62v324q0 65 -39 106.5t-101 41.5q-68 0 -115 -41.5t-47 -101.5v-329h-62v517h62v-85q21 43 67.5 70t102.5 27z" />
    <glyph glyph-name="Ncommaaccent" unicode="&#x145;" horiz-adv-x="756" 
d="M94 0v687h64l440 -583v583h64v-687h-64l-440 583v-583h-64zM360 -273l-30 22q38 43 47 83q-17 0 -28.5 12t-11.5 29t11.5 28.5t29.5 11.5q20 0 32.5 -16.5t12.5 -42.5q0 -47 -63 -127z" />
    <glyph glyph-name="ncommaaccent" unicode="&#x146;" 
d="M309 529q85 0 139.5 -55.5t54.5 -141.5v-332h-62v324q0 65 -39 106.5t-101 41.5q-68 0 -115 -41.5t-47 -101.5v-329h-62v517h62v-85q21 43 67.5 70t102.5 27zM300 -87q20 0 32.5 -16.5t12.5 -42.5q0 -47 -63 -127l-30 22q38 43 47 83q-17 0 -28.5 12t-11.5 29t11.5 28.5
t29.5 11.5z" />
    <glyph glyph-name="Ncaron" unicode="&#x147;" horiz-adv-x="756" 
d="M347 746l-102 137h53l80 -93l81 93h53l-104 -137h-61zM94 0v687h64l440 -583v583h64v-687h-64l-440 583v-583h-64z" />
    <glyph glyph-name="ncaron" unicode="&#x148;" 
d="M330 576h-61l-102 137h53l80 -93l81 93h53zM309 529q85 0 139.5 -55.5t54.5 -141.5v-332h-62v324q0 65 -39 106.5t-101 41.5q-68 0 -115 -41.5t-47 -101.5v-329h-62v517h62v-85q21 43 67.5 70t102.5 27z" />
    <glyph glyph-name="Omacron" unicode="&#x14c;" horiz-adv-x="807" 
d="M249 767v49h310v-49h-310zM404 -12q-143 0 -247.5 105.5t-104.5 250.5t104.5 250t247.5 105t247 -105t104 -250t-104 -250.5t-247 -105.5zM404 48q117 0 201.5 87.5t84.5 208.5q0 120 -84.5 207.5t-201.5 87.5t-202 -87.5t-85 -207.5q0 -121 85 -208.5t202 -87.5z" />
    <glyph glyph-name="omacron" unicode="&#x14d;" horiz-adv-x="631" 
d="M161 597v49h310v-49h-310zM316 -12q-109 0 -188.5 80.5t-79.5 190.5t79.5 190t188.5 80t188 -80t79 -190t-79 -190.5t-188 -80.5zM316 45q83 0 142.5 63t59.5 151q0 87 -59.5 150t-142.5 63t-143 -63t-60 -150q0 -88 60 -151t143 -63z" />
    <glyph glyph-name="Ohungarumlaut" unicode="&#x150;" horiz-adv-x="807" 
d="M273 745l122 144l67 -15l-134 -129h-55zM462 745l122 143l66 -15l-134 -128h-54zM404 -12q-143 0 -247.5 105.5t-104.5 250.5t104.5 250t247.5 105t247 -105t104 -250t-104 -250.5t-247 -105.5zM404 48q117 0 201.5 87.5t84.5 208.5q0 120 -84.5 207.5t-201.5 87.5
t-202 -87.5t-85 -207.5q0 -121 85 -208.5t202 -87.5z" />
    <glyph glyph-name="ohungarumlaut" unicode="&#x151;" horiz-adv-x="631" 
d="M189 575l122 144l67 -15l-134 -129h-55zM378 575l122 143l66 -15l-134 -128h-54zM316 -12q-109 0 -188.5 80.5t-79.5 190.5t79.5 190t188.5 80t188 -80t79 -190t-79 -190.5t-188 -80.5zM316 45q83 0 142.5 63t59.5 151q0 87 -59.5 150t-142.5 63t-143 -63t-60 -150
q0 -88 60 -151t143 -63z" />
    <glyph glyph-name="OE" unicode="&#x152;" horiz-adv-x="1018" 
d="M963 626h-414v-245h376v-62h-376v-258h414v-61h-559q-145 0 -248.5 97t-103.5 240q0 144 104.5 247t247.5 103h559v-61zM404 60h80v567h-80q-117 0 -202 -85t-85 -205q0 -118 84 -197.5t203 -79.5z" />
    <glyph glyph-name="oe" unicode="&#x153;" horiz-adv-x="1066" 
d="M778 45q49 0 97 18t75 47l39 -42q-32 -35 -92.5 -57.5t-118.5 -22.5q-72 0 -133 38.5t-95 104.5q-35 -65 -97.5 -104t-136.5 -39q-109 0 -188.5 80.5t-79.5 190.5t79.5 190t188.5 80q73 0 135.5 -38.5t97.5 -101.5q33 64 93 102t132 38q114 0 179.5 -80t65.5 -215h-437
q8 -81 63 -135t133 -54zM316 45q83 0 142.5 63t59.5 151q0 87 -59.5 150t-142.5 63t-143 -63t-60 -150q0 -88 60 -151t143 -63zM776 472q-76 0 -129.5 -50.5t-63.5 -130.5h374q-6 81 -54 131t-127 50z" />
    <glyph glyph-name="Racute" unicode="&#x154;" horiz-adv-x="646" 
d="M443 874l-134 -128h-55l122 143zM609 470q0 -82 -54.5 -140t-141.5 -72l182 -258h-74l-179 254h-199v-254h-64v687h282q106 0 177 -61t71 -156zM143 626v-311h207q87 0 141 42t54 113t-54 113.5t-141 42.5h-207z" />
    <glyph glyph-name="racute" unicode="&#x155;" horiz-adv-x="373" 
d="M328 704l-134 -128h-55l122 143zM145 411q22 53 76 85.5t124 32.5v-57q-88 0 -144 -51.5t-56 -131.5v-289h-62v517h62v-106z" />
    <glyph glyph-name="Rcommaaccent" unicode="&#x156;" horiz-adv-x="646" 
d="M609 470q0 -82 -54.5 -140t-141.5 -72l182 -258h-74l-179 254h-199v-254h-64v687h282q106 0 177 -61t71 -156zM143 626v-311h207q87 0 141 42t54 113t-54 113.5t-141 42.5h-207zM319 -87q20 0 32.5 -16.5t12.5 -42.5q0 -47 -63 -127l-30 22q38 43 47 83q-17 0 -28.5 12
t-11.5 29t11.5 28.5t29.5 11.5z" />
    <glyph glyph-name="rcommaaccent" unicode="&#x157;" horiz-adv-x="373" 
d="M145 411q22 53 76 85.5t124 32.5v-57q-88 0 -144 -51.5t-56 -131.5v-289h-62v517h62v-106zM145 -87q20 0 32.5 -16.5t12.5 -42.5q0 -47 -63 -127l-30 22q38 43 47 83q-17 0 -28.5 12t-11.5 29t11.5 28.5t29.5 11.5z" />
    <glyph glyph-name="Rcaron" unicode="&#x158;" horiz-adv-x="646" 
d="M361 746h-61l-102 137h53l80 -93l81 93h53zM609 470q0 -82 -54.5 -140t-141.5 -72l182 -258h-74l-179 254h-199v-254h-64v687h282q106 0 177 -61t71 -156zM143 626v-311h207q87 0 141 42t54 113t-54 113.5t-141 42.5h-207z" />
    <glyph glyph-name="rcaron" unicode="&#x159;" horiz-adv-x="373" 
d="M246 576h-61l-102 137h53l80 -93l81 93h53zM145 411q22 53 76 85.5t124 32.5v-57q-88 0 -144 -51.5t-56 -131.5v-289h-62v517h62v-106z" />
    <glyph glyph-name="Sacute" unicode="&#x15a;" horiz-adv-x="610" 
d="M223 746l122 143l67 -15l-134 -128h-55zM317 -11q-160 0 -271 109l40 50q100 -100 233 -100q79 0 125.5 37.5t46.5 92.5q0 54 -45.5 84.5t-147.5 54.5q-116 27 -170.5 68.5t-54.5 118.5q0 84 64.5 140t162.5 56q132 0 240 -98l-40 -50q-91 89 -203 89q-69 0 -114 -38.5
t-45 -93.5q0 -49 45 -77t147 -53q113 -27 169.5 -71t56.5 -124q0 -85 -64 -140t-175 -55z" />
    <glyph glyph-name="sacute" unicode="&#x15b;" horiz-adv-x="493" 
d="M174 576l122 143l67 -15l-134 -128h-55zM259 -12q-118 0 -214 77l33 46q92 -66 181 -66q53 0 88.5 24.5t35.5 61.5q0 39 -33.5 61.5t-103.5 43.5q-94 27 -133.5 60.5t-39.5 87.5q0 64 51 104.5t127 40.5q96 0 185 -58l-31 -48q-80 49 -154 49q-49 0 -82.5 -22.5
t-33.5 -58.5q0 -34 30.5 -54.5t110.5 -46.5q84 -27 126.5 -59t42.5 -94q0 -65 -53.5 -107t-132.5 -42z" />
    <glyph glyph-name="Scedilla" unicode="&#x15e;" horiz-adv-x="610" 
d="M556 184q0 -82 -59.5 -136.5t-162.5 -58.5l-15 -35q4 1 12 1q29 0 48.5 -18.5t19.5 -46.5q0 -36 -28 -59t-68 -23q-51 0 -86 28l18 39q29 -24 65 -24q22 0 37 12t15 29q0 16 -10.5 25.5t-29.5 9.5q-20 0 -34 -11l-16 17l24 57q-141 10 -240 108l40 50q100 -100 233 -100
q79 0 125.5 37.5t46.5 92.5q0 54 -45.5 84.5t-147.5 54.5q-116 27 -170.5 68.5t-54.5 118.5q0 84 64.5 140t162.5 56q132 0 240 -98l-40 -50q-91 89 -203 89q-69 0 -114 -38.5t-45 -93.5q0 -49 45 -77t147 -53q113 -27 169.5 -71t56.5 -124z" />
    <glyph glyph-name="scedilla" unicode="&#x15f;" horiz-adv-x="493" 
d="M445 137q0 -62 -49 -103t-123 -46l-14 -34q4 1 12 1q29 0 48.5 -18.5t19.5 -46.5q0 -36 -28 -59t-68 -23q-51 0 -86 28l18 39q29 -24 65 -24q22 0 37 12t15 29q0 16 -10.5 25.5t-29.5 9.5q-20 0 -34 -11l-16 17l24 57q-102 11 -181 75l33 46q92 -66 181 -66
q53 0 88.5 24.5t35.5 61.5q0 39 -33.5 61.5t-103.5 43.5q-94 27 -133.5 60.5t-39.5 87.5q0 64 51 104.5t127 40.5q96 0 185 -58l-31 -48q-80 49 -154 49q-49 0 -82.5 -22.5t-33.5 -58.5q0 -34 30.5 -54.5t110.5 -46.5q84 -27 126.5 -59t42.5 -94z" />
    <glyph glyph-name="Scaron" unicode="&#x160;" horiz-adv-x="610" 
d="M269 746l-102 137h53l80 -93l81 93h53l-104 -137h-61zM317 -11q-160 0 -271 109l40 50q100 -100 233 -100q79 0 125.5 37.5t46.5 92.5q0 54 -45.5 84.5t-147.5 54.5q-116 27 -170.5 68.5t-54.5 118.5q0 84 64.5 140t162.5 56q132 0 240 -98l-40 -50q-91 89 -203 89
q-69 0 -114 -38.5t-45 -93.5q0 -49 45 -77t147 -53q113 -27 169.5 -71t56.5 -124q0 -85 -64 -140t-175 -55z" />
    <glyph glyph-name="scaron" unicode="&#x161;" horiz-adv-x="493" 
d="M220 576l-102 137h53l80 -93l81 93h53l-104 -137h-61zM259 -12q-118 0 -214 77l33 46q92 -66 181 -66q53 0 88.5 24.5t35.5 61.5q0 39 -33.5 61.5t-103.5 43.5q-94 27 -133.5 60.5t-39.5 87.5q0 64 51 104.5t127 40.5q96 0 185 -58l-31 -48q-80 49 -154 49
q-49 0 -82.5 -22.5t-33.5 -58.5q0 -34 30.5 -54.5t110.5 -46.5q84 -27 126.5 -59t42.5 -94q0 -65 -53.5 -107t-132.5 -42z" />
    <glyph glyph-name="uni0162" unicode="&#x162;" horiz-adv-x="630" 
d="M347 0h-6l-19 -46q4 1 12 1q29 0 48.5 -18.5t19.5 -46.5q0 -36 -28 -59t-68 -23q-51 0 -86 28l18 39q28 -24 65 -24q22 0 37 12t15 29q0 16 -10.5 25.5t-29.5 9.5q-20 0 -34 -11l-16 17l28 67h-10v626h-238v61h540v-61h-238v-626z" />
    <glyph glyph-name="uni0163" unicode="&#x163;" horiz-adv-x="367" 
d="M265 -45q29 0 48.5 -18.5t19.5 -46.5q0 -36 -28 -59t-68 -23q-51 0 -86 28l18 39q29 -24 65 -24q22 0 37 12t15 29q0 16 -10.5 25.5t-29.5 9.5q-20 0 -34 -11l-16 17l24 57q-44 8 -71.5 43.5t-27.5 86.5v340h-84v57h84v142h62v-142h130v-57h-130v-340q0 -33 18 -54
t44 -21q36 0 60 22l32 -46q-32 -24 -69 -30l-15 -37q4 1 12 1z" />
    <glyph glyph-name="Tcaron" unicode="&#x164;" horiz-adv-x="630" 
d="M284 746l-102 137h53l80 -93l81 93h53l-104 -137h-61zM283 0v626h-238v61h540v-61h-238v-626h-64z" />
    <glyph glyph-name="tcaron" unicode="&#x165;" horiz-adv-x="367" 
d="M431 699q20 0 32.5 -16.5t12.5 -42.5q0 -47 -63 -127l-30 22q38 43 47 83q-17 0 -28.5 12t-11.5 29t11.5 28.5t29.5 11.5zM245 45q36 0 60 22l32 -46q-42 -33 -96 -33q-53 0 -86.5 37t-33.5 95v340h-84v57h84v142h62v-142h130v-57h-130v-340q0 -33 18 -54t44 -21z" />
    <glyph glyph-name="Umacron" unicode="&#x16a;" horiz-adv-x="732" 
d="M211 767v49h310v-49h-310zM366 -12q-123 0 -201.5 81.5t-78.5 208.5v409h64v-409q0 -101 60.5 -166t155.5 -65t155.5 65t60.5 166v409h64v-409q0 -127 -78.5 -208.5t-201.5 -81.5z" />
    <glyph glyph-name="umacron" unicode="&#x16b;" 
d="M443 646v-49h-310v49h310zM440 517h62v-517h-62v85q-21 -43 -67.5 -70t-102.5 -27q-85 0 -139.5 55.5t-54.5 141.5v332h62v-324q0 -65 39 -106.5t101 -41.5q68 0 115 41.5t47 101.5v329z" />
    <glyph glyph-name="Uring" unicode="&#x16e;" horiz-adv-x="732" 
d="M366 759q-43 0 -73 30t-30 73t30 73t73 30t73 -30t30 -73t-30 -73t-73 -30zM366 800q26 0 44 18t18 44t-18 44t-44 18t-44 -18t-18 -44t18 -44t44 -18zM366 -12q-123 0 -201.5 81.5t-78.5 208.5v409h64v-409q0 -101 60.5 -166t155.5 -65t155.5 65t60.5 166v409h64v-409
q0 -127 -78.5 -208.5t-201.5 -81.5z" />
    <glyph glyph-name="uring" unicode="&#x16f;" 
d="M288 589q-43 0 -73 30t-30 73t30 73t73 30t73 -30t30 -73t-30 -73t-73 -30zM288 754q-26 0 -44 -18t-18 -44t18 -44t44 -18t44 18t18 44t-18 44t-44 18zM440 517h62v-517h-62v85q-21 -43 -67.5 -70t-102.5 -27q-85 0 -139.5 55.5t-54.5 141.5v332h62v-324
q0 -65 39 -106.5t101 -41.5q68 0 115 41.5t47 101.5v329z" />
    <glyph glyph-name="Uhungarumlaut" unicode="&#x170;" horiz-adv-x="732" 
d="M231 745l122 144l67 -15l-134 -129h-55zM420 745l122 143l66 -15l-134 -128h-54zM366 -12q-123 0 -201.5 81.5t-78.5 208.5v409h64v-409q0 -101 60.5 -166t155.5 -65t155.5 65t60.5 166v409h64v-409q0 -127 -78.5 -208.5t-201.5 -81.5z" />
    <glyph glyph-name="uhungarumlaut" unicode="&#x171;" 
d="M347 704l-134 -129h-55l122 144zM401 575h-54l122 143l66 -15zM440 188v329h62v-517h-62v85q-21 -43 -67.5 -70t-102.5 -27q-85 0 -139.5 55.5t-54.5 141.5v332h62v-324q0 -65 39 -106.5t101 -41.5q68 0 115 41.5t47 101.5z" />
    <glyph glyph-name="Uogonek" unicode="&#x172;" horiz-adv-x="732" 
d="M582 687h64v-409q0 -127 -78.5 -208.5t-201.5 -81.5q-13 0 -19 1q-24 -18 -24 -50q0 -29 16.5 -45t45.5 -16q32 0 51 21l28 -43q-35 -29 -84 -29q-47 0 -76.5 28.5t-29.5 76.5q0 37 24 63q-96 22 -154 98.5t-58 184.5v409h64v-409q0 -101 60.5 -166t155.5 -65t155.5 65
t60.5 166v409z" />
    <glyph glyph-name="uogonek" unicode="&#x173;" 
d="M553 -101l28 -43q-35 -29 -84 -29q-47 0 -76.5 28.5t-29.5 76.5q0 27 13.5 49.5t35.5 33.5v70q-21 -43 -67.5 -70t-102.5 -27q-85 0 -139.5 55.5t-54.5 141.5v332h62v-324q0 -65 39 -106.5t101 -41.5q68 0 115 41.5t47 101.5v329h62v-517q-28 0 -45 -17t-17 -44
q0 -29 16.5 -45t45.5 -16q32 0 51 21z" />
    <glyph glyph-name="Wcircumflex" unicode="&#x174;" horiz-adv-x="1065" 
d="M400 746l102 137h61l104 -137h-53l-81 93l-80 -93h-53zM270 0l-233 687h72l197 -580l191 580h71l192 -580l196 580h72l-233 -687h-65l-197 600l-198 -600h-65z" />
    <glyph glyph-name="wcircumflex" unicode="&#x175;" horiz-adv-x="820" 
d="M278 576l102 137h61l104 -137h-53l-81 93l-80 -93h-53zM207 0l-172 517h66l137 -434l146 434h54l145 -434l138 434h66l-173 -517h-62l-141 425l-142 -425h-62z" />
    <glyph glyph-name="Ycircumflex" unicode="&#x176;" horiz-adv-x="658" 
d="M196 746l102 137h61l104 -137h-53l-81 93l-80 -93h-53zM296 0v280l-278 407h80l231 -344l233 344h78l-277 -407v-280h-67z" />
    <glyph glyph-name="ycircumflex" unicode="&#x177;" horiz-adv-x="584" 
d="M156 576l102 137h61l104 -137h-53l-81 93l-80 -93h-53zM144 -180q-45 0 -82 17l16 55q29 -15 64 -15q57 0 84 48l31 67l-227 525h68l191 -451l181 451h67l-238 -581q-24 -60 -62 -87.5t-93 -28.5z" />
    <glyph glyph-name="Ydieresis" unicode="&#x178;" horiz-adv-x="658" 
d="M233 772q-17 0 -29 12t-12 29q0 16 12 28.5t29 12.5q16 0 28.5 -12.5t12.5 -28.5q0 -17 -12 -29t-29 -12zM425 772q-17 0 -29 12t-12 29q0 16 12 28.5t29 12.5q16 0 28.5 -12.5t12.5 -28.5q0 -17 -12 -29t-29 -12zM296 0v280l-278 407h80l231 -344l233 344h78l-277 -407
v-280h-67z" />
    <glyph glyph-name="Zacute" unicode="&#x179;" horiz-adv-x="632" 
d="M241 746l122 143l67 -15l-134 -128h-55zM58 0v51l428 575h-421v61h507v-51l-429 -575h433v-61h-518z" />
    <glyph glyph-name="zacute" unicode="&#x17a;" horiz-adv-x="514" 
d="M185 576l122 143l67 -15l-134 -128h-55zM54 0v49l323 409h-317v59h400v-49l-324 -409h326v-59h-408z" />
    <glyph glyph-name="Zdotaccent" unicode="&#x17b;" horiz-adv-x="632" 
d="M318 772q-17 0 -29 12t-12 29q0 16 12 28.5t29 12.5q16 0 28 -12.5t12 -28.5q0 -17 -12 -29t-28 -12zM58 0v51l428 575h-421v61h507v-51l-429 -575h433v-61h-518z" />
    <glyph glyph-name="zdotaccent" unicode="&#x17c;" horiz-adv-x="514" 
d="M262 602q-17 0 -29 12t-12 29q0 16 12 28.5t29 12.5q16 0 28 -12.5t12 -28.5q0 -17 -12 -29t-28 -12zM54 0v49l323 409h-317v59h400v-49l-324 -409h326v-59h-408z" />
    <glyph glyph-name="Zcaron" unicode="&#x17d;" horiz-adv-x="632" 
d="M287 746l-102 137h53l80 -93l81 93h53l-104 -137h-61zM58 0v51l428 575h-421v61h507v-51l-429 -575h433v-61h-518z" />
    <glyph glyph-name="zcaron" unicode="&#x17e;" horiz-adv-x="514" 
d="M231 576l-102 137h53l80 -93l81 93h53l-104 -137h-61zM54 0v49l323 409h-317v59h400v-49l-324 -409h326v-59h-408z" />
    <glyph glyph-name="uni0237" unicode="&#x237;" horiz-adv-x="204" 
d="M13 -178q-45 0 -81 16l10 53q29 -12 67 -12q27 0 44.5 20.5t17.5 51.5v566h62v-566q0 -56 -34 -92.5t-86 -36.5z" />
    <glyph glyph-name="circumflex" unicode="&#x2c6;" horiz-adv-x="393" 
d="M63 576l102 137h61l104 -137h-53l-81 93l-80 -93h-53z" />
    <glyph glyph-name="caron" unicode="&#x2c7;" horiz-adv-x="393" 
d="M165 576l-102 137h53l80 -93l81 93h53l-104 -137h-61z" />
    <glyph glyph-name="breve" unicode="&#x2d8;" horiz-adv-x="418" 
d="M209 589q-84 0 -146 60l40 40q46 -44 106 -44t106 44l40 -40q-60 -60 -146 -60z" />
    <glyph glyph-name="dotaccent" unicode="&#x2d9;" horiz-adv-x="207" 
d="M104 602q-17 0 -29 12t-12 29q0 16 12 28.5t29 12.5q16 0 28 -12.5t12 -28.5q0 -17 -12 -29t-28 -12z" />
    <glyph glyph-name="ring" unicode="&#x2da;" horiz-adv-x="332" 
d="M166 589q-43 0 -73 30t-30 73t30 73t73 30t73 -30t30 -73t-30 -73t-73 -30zM166 630q26 0 44 18t18 44t-18 44t-44 18t-44 -18t-18 -44t18 -44t44 -18z" />
    <glyph glyph-name="ogonek" unicode="&#x2db;" horiz-adv-x="316" 
d="M169 -173q-47 0 -76.5 28.5t-29.5 76.5q0 31 17.5 55.5t44.5 32.5l49 -20q-28 0 -45 -17t-17 -44q0 -29 16.5 -45t45.5 -16q32 0 51 21l28 -43q-35 -29 -84 -29z" />
    <glyph glyph-name="tilde" unicode="&#x2dc;" horiz-adv-x="451" 
d="M290 579q-32 0 -71.5 33t-57.5 33q-40 0 -52 -72l-42 7q14 115 94 115q32 0 71.5 -33t57.5 -33q39 0 52 72l42 -7q-14 -115 -94 -115z" />
    <glyph glyph-name="hungarumlaut" unicode="&#x2dd;" horiz-adv-x="504" 
d="M63 575l122 144l67 -15l-134 -129h-55zM252 575l122 143l66 -15l-134 -128h-54z" />
    <glyph glyph-name="uni0326" unicode="&#x326;" horiz-adv-x="0" 
d="M-140 -273l-30 22q38 43 47 83q-17 0 -28.5 12t-11.5 29t11.5 28.5t29.5 11.5q20 0 32.5 -16.5t12.5 -42.5q0 -47 -63 -127z" />
    <glyph glyph-name="Wgrave" unicode="&#x1e80;" horiz-adv-x="1065" 
d="M507 746l-134 128l66 15l123 -143h-55zM270 0l-233 687h72l197 -580l191 580h71l192 -580l196 580h72l-233 -687h-65l-197 600l-198 -600h-65z" />
    <glyph glyph-name="wgrave" unicode="&#x1e81;" horiz-adv-x="820" 
d="M385 576l-134 128l66 15l123 -143h-55zM207 0l-172 517h66l137 -434l146 434h54l145 -434l138 434h66l-173 -517h-62l-141 425l-142 -425h-62z" />
    <glyph glyph-name="Wacute" unicode="&#x1e82;" horiz-adv-x="1065" 
d="M505 746l122 143l67 -15l-134 -128h-55zM270 0l-233 687h72l197 -580l191 580h71l192 -580l196 580h72l-233 -687h-65l-197 600l-198 -600h-65z" />
    <glyph glyph-name="wacute" unicode="&#x1e83;" horiz-adv-x="820" 
d="M383 576l122 143l67 -15l-134 -128h-55zM207 0l-172 517h66l137 -434l146 434h54l145 -434l138 434h66l-173 -517h-62l-141 425l-142 -425h-62z" />
    <glyph glyph-name="Wdieresis" unicode="&#x1e84;" horiz-adv-x="1065" 
d="M437 772q-17 0 -29 12t-12 29q0 16 12 28.5t29 12.5q16 0 28.5 -12.5t12.5 -28.5q0 -17 -12 -29t-29 -12zM629 772q-17 0 -29 12t-12 29q0 16 12 28.5t29 12.5q16 0 28.5 -12.5t12.5 -28.5q0 -17 -12 -29t-29 -12zM270 0l-233 687h72l197 -580l191 580h71l192 -580
l196 580h72l-233 -687h-65l-197 600l-198 -600h-65z" />
    <glyph glyph-name="wdieresis" unicode="&#x1e85;" horiz-adv-x="820" 
d="M315 602q-17 0 -29 12t-12 29q0 16 12 28.5t29 12.5q16 0 28.5 -12.5t12.5 -28.5q0 -17 -12 -29t-29 -12zM507 602q-17 0 -29 12t-12 29q0 16 12 28.5t29 12.5q16 0 28.5 -12.5t12.5 -28.5q0 -17 -12 -29t-29 -12zM207 0l-172 517h66l137 -434l146 434h54l145 -434
l138 434h66l-173 -517h-62l-141 425l-142 -425h-62z" />
    <glyph glyph-name="uni1EB8" unicode="&#x1eb8;" horiz-adv-x="613" 
d="M558 626h-414v-245h376v-62h-376v-258h414v-61h-479v687h479v-61zM319 -85q16 0 28 -12.5t12 -28.5q0 -17 -12 -29t-28 -12q-17 0 -29 12t-12 29q0 16 12 28.5t29 12.5z" />
    <glyph glyph-name="uni1EB9" unicode="&#x1eb9;" horiz-adv-x="595" 
d="M307 45q49 0 97 18t75 47l39 -42q-32 -35 -92.5 -57.5t-118.5 -22.5q-105 0 -182 78.5t-77 193.5q0 114 74.5 191.5t180.5 77.5q114 0 179.5 -80t65.5 -215h-437q8 -81 63 -135t133 -54zM305 472q-76 0 -129.5 -50.5t-63.5 -130.5h374q-6 81 -54 131t-127 50zM302 -86
q16 0 28 -12.5t12 -28.5q0 -17 -12 -29t-28 -12q-17 0 -29 12t-12 29q0 16 12 28.5t29 12.5z" />
    <glyph glyph-name="uni1EBC" unicode="&#x1ebc;" horiz-adv-x="613" 
d="M254 815q-40 0 -52 -72l-42 7q14 115 94 115q32 0 71.5 -33t57.5 -33q39 0 52 72l42 -7q-14 -115 -94 -115q-32 0 -71.5 33t-57.5 33zM558 626h-414v-245h376v-62h-376v-258h414v-61h-479v687h479v-61z" />
    <glyph glyph-name="uni1EBD" unicode="&#x1ebd;" horiz-adv-x="595" 
d="M238 645q-40 0 -52 -72l-42 7q14 115 94 115q32 0 71.5 -33t57.5 -33q39 0 52 72l42 -7q-14 -115 -94 -115q-32 0 -71.5 33t-57.5 33zM307 45q49 0 97 18t75 47l39 -42q-32 -35 -92.5 -57.5t-118.5 -22.5q-105 0 -182 78.5t-77 193.5q0 114 74.5 191.5t180.5 77.5
q114 0 179.5 -80t65.5 -215h-437q8 -81 63 -135t133 -54zM305 472q-76 0 -129.5 -50.5t-63.5 -130.5h374q-6 81 -54 131t-127 50z" />
    <glyph glyph-name="Ygrave" unicode="&#x1ef2;" horiz-adv-x="658" 
d="M345 746l-134 128l66 15l123 -143h-55zM296 0v280l-278 407h80l231 -344l233 344h78l-277 -407v-280h-67z" />
    <glyph glyph-name="ygrave" unicode="&#x1ef3;" horiz-adv-x="584" 
d="M305 576l-134 128l66 15l123 -143h-55zM144 -180q-45 0 -82 17l16 55q29 -15 64 -15q57 0 84 48l31 67l-227 525h68l191 -451l181 451h67l-238 -581q-24 -60 -62 -87.5t-93 -28.5z" />
    <glyph glyph-name="endash" unicode="&#x2013;" horiz-adv-x="577" 
d="M56 242v59h465v-59h-465z" />
    <glyph glyph-name="emdash" unicode="&#x2014;" horiz-adv-x="882" 
d="M56 242v59h770v-59h-770z" />
    <glyph glyph-name="quoteleft" unicode="&#x2018;" horiz-adv-x="256" 
d="M144 670l33 -25q-39 -45 -52 -93q19 0 32.5 -13.5t13.5 -33.5q0 -19 -13.5 -32t-33.5 -13q-23 0 -37 18.5t-14 48.5q0 29 15.5 61t55.5 82z" />
    <glyph glyph-name="quoteright" unicode="&#x2019;" horiz-adv-x="256" 
d="M112 456l-33 25q39 45 52 93q-19 0 -32.5 13.5t-13.5 33.5q0 19 13.5 32t33.5 13q23 0 37 -18.5t14 -48.5q0 -29 -15.5 -61t-55.5 -82z" />
    <glyph glyph-name="quotedblleft" unicode="&#x201c;" horiz-adv-x="450" 
d="M144 670l33 -25q-39 -45 -52 -93q19 0 32.5 -13.5t13.5 -33.5q0 -19 -13.5 -32t-33.5 -13q-23 0 -37 18.5t-14 48.5q0 29 15.5 61t55.5 82zM338 670l33 -25q-39 -45 -52 -93q19 0 32.5 -13.5t13.5 -33.5q0 -19 -13.5 -32t-33.5 -13q-23 0 -37 18.5t-14 48.5q0 29 15.5 61
t55.5 82z" />
    <glyph glyph-name="quotedblright" unicode="&#x201d;" horiz-adv-x="450" 
d="M112 456l-33 25q39 45 52 93q-19 0 -32.5 13.5t-13.5 33.5q0 19 13.5 32t33.5 13q23 0 37 -18.5t14 -48.5q0 -29 -15.5 -61t-55.5 -82zM305 456l-33 25q39 45 52 93q-19 0 -32.5 13.5t-13.5 33.5q0 19 13 32t34 13q23 0 37 -18.5t14 -48.5q0 -29 -15.5 -61t-55.5 -82z
" />
    <glyph glyph-name="ellipsis" unicode="&#x2026;" horiz-adv-x="625" 
d="M120 -12q-20 0 -33.5 13.5t-13.5 33.5q0 18 13.5 31.5t33.5 13.5q19 0 32 -13.5t13 -31.5q0 -20 -13 -33.5t-32 -13.5zM313 -12q-20 0 -33.5 13.5t-13.5 33.5q0 18 13.5 31.5t33.5 13.5q19 0 32 -13.5t13 -31.5q0 -20 -13 -33.5t-32 -13.5zM507 -12q-20 0 -33.5 13.5
t-13.5 33.5q0 18 13.5 31.5t33.5 13.5q19 0 32 -13.5t13 -31.5q0 -20 -13 -33.5t-32 -13.5z" />
    <glyph glyph-name="perthousand" unicode="&#x2030;" horiz-adv-x="1160" 
d="M201 349q-67 0 -110.5 49t-43.5 121q0 75 44 124.5t111 49.5q68 0 111.5 -49t43.5 -123t-44 -123t-112 -49zM129 0l470 687h60l-470 -687h-60zM202 397q44 0 72.5 35t28.5 88q0 54 -29 89.5t-73 35.5t-72 -35t-28 -90q0 -53 29 -88t72 -35zM583 -10q-67 0 -110.5 49
t-43.5 123q0 73 43.5 122.5t111.5 49.5t111.5 -49.5t43.5 -121.5q0 -75 -44 -124t-112 -49zM956 -10q-67 0 -110.5 48.5t-43.5 123.5q0 73 43.5 122.5t111.5 49.5t111.5 -49.5t43.5 -121.5q0 -75 -44 -124t-112 -49zM584 38q45 0 73 35t28 89q0 53 -29 88.5t-73 35.5
t-72 -35t-28 -88q0 -54 28.5 -89.5t72.5 -35.5zM957 38q44 0 72.5 35t28.5 89q0 53 -29 88.5t-73 35.5t-72 -35t-28 -88q0 -54 28.5 -89.5t72.5 -35.5z" />
    <glyph glyph-name="Euro" unicode="&#x20ac;" horiz-adv-x="680" 
d="M404 48q118 0 203 90l44 -45q-105 -105 -247 -105q-115 0 -208.5 71.5t-127.5 181.5h-92v57h79q-3 22 -3 46q0 32 6 64h-82v57h98q38 103 129 168.5t201 65.5q144 0 247 -105l-44 -44q-86 89 -203 89q-84 0 -155 -48t-106 -126h329v-57h-348q-7 -29 -7 -64q0 -26 4 -46
h351v-57h-336q31 -85 104.5 -139t163.5 -54z" />
    <glyph glyph-name="minus" unicode="&#x2212;" horiz-adv-x="593" 
d="M67 303v62h459v-62h-459z" />
    <glyph glyph-name="a.alt" horiz-adv-x="625" 
d="M480 517h62v-517h-62v101q-65 -113 -193 -113q-100 0 -168 77.5t-68 193.5q0 115 68 192.5t168 77.5q128 0 193 -113v101zM298 45q80 0 131 60t51 154t-51 153.5t-131 59.5q-78 0 -130.5 -61t-52.5 -152t52.5 -152.5t130.5 -61.5z" />
    <glyph glyph-name="aacute.alt" horiz-adv-x="625" 
d="M424 704l-134 -128h-55l122 143zM480 517h62v-517h-62v101q-65 -113 -193 -113q-100 0 -168 77.5t-68 193.5q0 115 68 192.5t168 77.5q128 0 193 -113v101zM298 45q80 0 131 60t51 154t-51 153.5t-131 59.5q-78 0 -130.5 -61t-52.5 -152t52.5 -152.5t130.5 -61.5z" />
    <glyph glyph-name="abreve.alt" horiz-adv-x="625" 
d="M458 649q-60 -60 -146 -60q-84 0 -146 60l40 40q46 -44 106 -44t106 44zM480 517h62v-517h-62v101q-65 -113 -193 -113q-100 0 -168 77.5t-68 193.5q0 115 68 192.5t168 77.5q128 0 193 -113v101zM298 45q80 0 131 60t51 154t-51 153.5t-131 59.5q-78 0 -130.5 -61
t-52.5 -152t52.5 -152.5t130.5 -61.5z" />
    <glyph glyph-name="acircumflex.alt" horiz-adv-x="625" 
d="M312 669l-80 -93h-53l102 137h61l104 -137h-53zM480 517h62v-517h-62v101q-65 -113 -193 -113q-100 0 -168 77.5t-68 193.5q0 115 68 192.5t168 77.5q128 0 193 -113v101zM298 45q80 0 131 60t51 154t-51 153.5t-131 59.5q-78 0 -130.5 -61t-52.5 -152t52.5 -152.5
t130.5 -61.5z" />
    <glyph glyph-name="adieresis.alt" horiz-adv-x="625" 
d="M216 602q-17 0 -29 12t-12 29q0 16 12 28.5t29 12.5q16 0 28.5 -12.5t12.5 -28.5q0 -17 -12.5 -29t-28.5 -12zM408 602q-17 0 -29 12t-12 29q0 16 12 28.5t29 12.5q16 0 28.5 -12.5t12.5 -28.5q0 -17 -12.5 -29t-28.5 -12zM480 517h62v-517h-62v101q-65 -113 -193 -113
q-100 0 -168 77.5t-68 193.5q0 115 68 192.5t168 77.5q128 0 193 -113v101zM298 45q80 0 131 60t51 154t-51 153.5t-131 59.5q-78 0 -130.5 -61t-52.5 -152t52.5 -152.5t130.5 -61.5z" />
    <glyph glyph-name="agrave.alt" horiz-adv-x="625" 
d="M383 576h-55l-134 128l66 15zM480 517h62v-517h-62v101q-65 -113 -193 -113q-100 0 -168 77.5t-68 193.5q0 115 68 192.5t168 77.5q128 0 193 -113v101zM298 45q80 0 131 60t51 154t-51 153.5t-131 59.5q-78 0 -130.5 -61t-52.5 -152t52.5 -152.5t130.5 -61.5z" />
    <glyph glyph-name="amacron.alt" horiz-adv-x="625" 
d="M467 646v-49h-310v49h310zM480 517h62v-517h-62v101q-65 -113 -193 -113q-100 0 -168 77.5t-68 193.5q0 115 68 192.5t168 77.5q128 0 193 -113v101zM298 45q80 0 131 60t51 154t-51 153.5t-131 59.5q-78 0 -130.5 -61t-52.5 -152t52.5 -152.5t130.5 -61.5z" />
    <glyph glyph-name="aogonek.alt" horiz-adv-x="625" 
d="M593 -101l28 -43q-35 -29 -84 -29q-47 0 -76.5 28.5t-29.5 76.5q0 27 13.5 49.5t35.5 33.5v86q-65 -113 -193 -113q-100 0 -168 77.5t-68 193.5q0 115 68 192.5t168 77.5q128 0 193 -113v101h62v-517q-28 0 -45 -17t-17 -44q0 -29 16.5 -45t45.5 -16q32 0 51 21zM298 45
q80 0 131 60t51 154t-51 153.5t-131 59.5q-78 0 -130.5 -61t-52.5 -152t52.5 -152.5t130.5 -61.5z" />
    <glyph glyph-name="aring.alt" horiz-adv-x="625" 
d="M312 589q-43 0 -73 30t-30 73t30 73t73 30t73 -30t30 -73t-30 -73t-73 -30zM312 754q-26 0 -44 -18t-18 -44t18 -44t44 -18t44 18t18 44t-18 44t-44 18zM480 517h62v-517h-62v101q-65 -113 -193 -113q-100 0 -168 77.5t-68 193.5q0 115 68 192.5t168 77.5q128 0 193 -113
v101zM298 45q80 0 131 60t51 154t-51 153.5t-131 59.5q-78 0 -130.5 -61t-52.5 -152t52.5 -152.5t130.5 -61.5z" />
    <glyph glyph-name="atilde.alt" horiz-adv-x="625" 
d="M247 645q-40 0 -52 -72l-42 7q14 115 94 115q32 0 71.5 -33t57.5 -33q39 0 52 72l42 -7q-14 -115 -94 -115q-32 0 -71.5 33t-57.5 33zM480 517h62v-517h-62v101q-65 -113 -193 -113q-100 0 -168 77.5t-68 193.5q0 115 68 192.5t168 77.5q128 0 193 -113v101zM298 45
q80 0 131 60t51 154t-51 153.5t-131 59.5q-78 0 -130.5 -61t-52.5 -152t52.5 -152.5t130.5 -61.5z" />
    <glyph glyph-name="ascender" horiz-adv-x="628" 
d="M83 0v699h62v-699h-62z" />
    <glyph glyph-name="descender" horiz-adv-x="628" 
d="M83 -172v689h62v-689h-62z" />
    </font>
</defs>
</svg>
