<?xml version="1.0" standalone="no"?>
<!DOCTYPE svg PUBLIC "-//W3C//DTD SVG 1.1//EN" "http://www.w3.org/Graphics/SVG/1.1/DTD/svg11.dtd" >
<svg xmlns="http://www.w3.org/2000/svg" xmlns:xlink="http://www.w3.org/1999/xlink" version="1.1">
<metadata>
Created by FontForge 20170731 at Tue Nov 15 01:50:35 2016
 By Aleksey,,,
BEHANCE.NET/SHIVAI
</metadata>
<defs>
<font id="COMEALIVE-Regular" horiz-adv-x="644" >
  <font-face 
    font-family="COME ALIVE"
    font-weight="400"
    font-stretch="normal"
    units-per-em="1000"
    panose-1="0 0 5 0 0 0 0 0 0 0"
    ascent="1000"
    descent="0"
    x-height="950"
    cap-height="987"
    bbox="-2 -260 1235 1050"
    underline-thickness="50"
    underline-position="-200"
    unicode-range="U+0020-201E"
  />
<missing-glyph 
d="M166 261q17 14 75 14q53 0 76 -15q51 -33 51 -111q0 -54 -24 -105q-21 -44 -52 -44q-4 0 -14 2q-12 3 -48 5.5t-46 1.5q-19 -1 -31.5 7t-24.5 31q-25 52 -25 96q0 74 63 118zM283 999q12 1 37 1q139 0 227.5 -75.5t88.5 -193.5q0 -38 -10 -77q-15 -56 -46.5 -89
t-111.5 -77q-83 -47 -102 -62.5t-34 -51.5q-26 -61 -69 -61q-37 0 -58 47q-17 39 -17 81q0 55 28 120q25 57 51.5 81t96.5 64q30 17 30 18q0 6 -73 6q-78 0 -132 -6q-67 -8 -84 -24q-14 -13 -29 -13q-28 0 -48 39.5t-20 93.5q0 29 8 61q15 59 62 83.5t158 31.5q42 2 47 3z
" />
    <glyph glyph-name=".notdef" 
d="M166 261q17 14 75 14q53 0 76 -15q51 -33 51 -111q0 -54 -24 -105q-21 -44 -52 -44q-4 0 -14 2q-12 3 -48 5.5t-46 1.5q-19 -1 -31.5 7t-24.5 31q-25 52 -25 96q0 74 63 118zM283 999q12 1 37 1q139 0 227.5 -75.5t88.5 -193.5q0 -38 -10 -77q-15 -56 -46.5 -89
t-111.5 -77q-83 -47 -102 -62.5t-34 -51.5q-26 -61 -69 -61q-37 0 -58 47q-17 39 -17 81q0 55 28 120q25 57 51.5 81t96.5 64q30 17 30 18q0 6 -73 6q-78 0 -132 -6q-67 -8 -84 -24q-14 -13 -29 -13q-28 0 -48 39.5t-20 93.5q0 29 8 61q15 59 62 83.5t158 31.5q42 2 47 3z
" />
    <glyph glyph-name=".null" horiz-adv-x="0" 
 />
    <glyph glyph-name="nonmarkingreturn" horiz-adv-x="333" 
 />
    <glyph glyph-name="space" unicode=" " horiz-adv-x="300" 
 />
    <glyph glyph-name="exclam" unicode="!" horiz-adv-x="400" 
d="M181 316q-7 -3 -17 -3q-33 0 -70 29t-40 71q-2 28 -2 46q0 105 45 239q19 59 22 87q9 90 22 119q5 12 8 28q7 27 37 43t63 16q32 0 44 -15l8 -9l8 12q12 21 30 21q20 0 37 -29q16 -31 16 -73q0 -29 -7 -60q-11 -55 -15 -73q-8 -37 -18 -85q-14 -68 -21 -115
q-26 -160 -67 -214q-15 -21 -34 -21q-11 0 -17 5l-16 -5q-9 -10 -16 -14zM188 1q-2 0 -7.5 -0.5t-9.5 -0.5q-20 0 -67 4q-57 4 -76 27t-20 87q0 125 86 134q38 6 41 8t7.5 -2t13.5 -8.5t20 -4.5q31 0 43 4q4 2 12 2q23 0 37.5 -32.5t14.5 -75.5q0 -77 -39 -100
q-10 -5 -20 -19q-15 -18 -36 -23z" />
    <glyph glyph-name="quotedbl" unicode="&#x22;" 
d="M429 992q16 8 25 8q12 0 20 -7q5 -4 11 -4q1 0 2.5 0.5t2.5 0.5q9 0 21 -7l9 -6l2 4q10 13 26 13q18 0 36.5 -15t30.5 -41l10 -21l5 -32q6 -33 6 -42q-1 -7 -5 -81q-5 -64 -7 -118q-2 -57 -5.5 -76t-14.5 -35q-13 -19 -31 -19q-30 0 -55.5 50t-21.5 112v10q0 7 -7 4
q0 -1 -1 -1q-12 -5 -31 -5q-18 0 -31 5q-30 13 -53 64.5t-23 103.5q0 28 7 49q9 26 29 50t43 36zM199 995q7 5 17 5q33 0 58 -55.5t26 -131.5q2 -178 -17 -244q-13 -43 -41 -43q-36 0 -63 61q-17 43 -17 94q0 9 1 12q0 2 -3 0q-11 -7 -37 -7q-38 0 -54 13q-29 22 -45 65.5
t-16 89.5q0 91 51 104q9 2 11 4q11 14 60 14q22 0 38 -4l11 -3l1 5q6 12 19 21z" />
    <glyph glyph-name="numbersign" unicode="#" horiz-adv-x="1064" 
d="M698 987q14 13 26 13q8 0 20 -6q7 -4 11 -4q5 0 12 5q12 4 17 4q26 0 46.5 -36t20.5 -84q0 -14 -1 -21q0 -2 -0.5 -7.5t-0.5 -8.5t0.5 -7t0.5 -5l2 -9l52 -1q55 -1 70 -7.5t28 -34.5q19 -38 19 -92q0 -61 -23 -99q-11 -17 -19.5 -21.5t-33.5 -4.5q-20 0 -34 1l-59 2
l-1 -9q-2 -12 -4 -47l-2 -39l64 2q9 0 23.5 0.5t19.5 0.5q51 0 67 -15q37 -33 37 -117q0 -41 -11.5 -74.5t-31.5 -47.5q-8 -5 -99 -6q-87 0 -93 -3q-2 -4 -13 -71q-14 -91 -32 -116q-17 -22 -37 -22q-19 0 -35 21l-8 11l-9 -11q-13 -16 -29 -16q-18 0 -33.5 19t-24.5 53
q-6 21 -6 67q0 37 5 49q2 5 -39 5q-36 0 -109 -5l-26 -2l-6 -38q-20 -153 -71 -153q-15 0 -29 13q-9 8 -17 4q-9 -5 -21 -5q-31 0 -55 37t-24 95l-1 50h-27q-104 4 -119 12q-22 11 -34.5 46.5t-12.5 78.5q0 42 12 76t34 45q13 7 38 6q103 -6 122 -6q12 0 14 2t4 38
q2 32 4 49l2 13h-103l-26 -11q-23 -10 -35 -10t-25 12q-38 36 -38 116q0 52 20 92q8 15 18 23.5t31 16.5q31 13 48.5 16t58.5 5q37 1 45 2t9 6q1 2 5 24q2 10 4 28t3.5 28.5t6.5 20.5t13 14q10 6 17 16q16 28 73 28q37 0 50 -15q26 -32 35 -109q1 -26 5 -37q2 -5 101 -5h99
l2 42q4 96 43 130zM632 509l2 48l-47 -1q-89 -2 -105 -3t-17 -6q-1 -4 -7 -50l-6 -44h23q17 0 85 3t69 4q0 10 3 49z" />
    <glyph glyph-name="dollar" unicode="$" horiz-adv-x="848" 
d="M501 1048q4 2 8 2q13 0 23 -13q5 -7 7 -5q5 3 9 3q12 0 21 -9q22 -24 22 -73q0 -15 -3 -26q0 -1 2 -1.5t7 -1t9.5 -0.5t12.5 -0.5t13 -0.5t13.5 -0.5t12.5 -0.5q11 0 33.5 -0.5t35 -1t31 -3.5t30 -9t23.5 -18t19 -29q10 -23 10 -52q0 -33 -12 -56.5t-31 -21.5h-6
q-5 0 -7 -6q-5 -11 -13.5 -14.5t-32.5 -3.5q-118 0 -177 -18l-29 -10l-1 -22q-2 -24 -2 -75l-1 -52l30 -8q32 -8 36 -10q3 -1 33 -5q96 -9 125 -56q2 -3 7 -10t6 -9q18 -24 18 -69t-17 -71q-10 -16 -26 -26.5t-64 -35.5q-23 -13 -30 -19q-28 -27 -127 -77l-43 -22l-3 -24
q-5 -29 -8 -41q-5 -13 -9 -36q-4 -30 -16.5 -45.5t-30.5 -15.5q-24 0 -42.5 26t-18.5 68q0 27 -3 27q-56 -21 -142.5 -43t-114.5 -22q-21 0 -25 13q-1 5 -11 4q-22 -3 -34 26.5t-10 83.5q2 50 13 66t51 23q141 25 250 55q35 10 38.5 14t4.5 33v33l-40 4q-113 11 -162.5 46.5
t-56.5 109.5q0 7 -5 32q-4 17 -4 42q0 70 35 118q38 50 107.5 97t151.5 77q8 3 23.5 6.5t27 5t12.5 1.5q2 12 3 27q14 114 44 125zM382 598q1 10 2 18t1 11.5t-1 3.5q-4 0 -38 -22t-39 -27q-2 -2 8.5 -7t30.5 -11q32 -7 32 -4q0 1 0.5 6l1.5 15t2 17zM580 349q-3 3 -23 3
l-44 2q-2 0 -2.5 -3t-0.5 -6v-3v-2q0 -11 5 -12q5 -3 43 10z" />
    <glyph glyph-name="percent" unicode="%" horiz-adv-x="1116" 
d="M730 998q6 2 8 2t10 -3q19 -9 30 -38t11 -64q0 -51 -21 -82q-4 -6 -10 -12q-1 -1 -5 -21q-13 -102 -156 -384q-79 -157 -132 -281q-23 -53 -31.5 -68t-20.5 -19q-6 -3 -11 -3q-18 0 -30 18l-5 6l-7 -14q-10 -21 -18 -28t-22 -7q-22 0 -37 31t-15 74q0 28 5 48
q4 16 39.5 86t62.5 116q49 81 130 266q64 148 103 222t72 112q33 39 50 43zM865 641q10 3 19 3q21 0 33 -22l5 -11l13 2q6 1 20 1q39 0 69 -14q40 -20 62 -76t22 -128q0 -120 -55 -208q-29 -46 -93 -86t-128 -53l-17 -3l-26 -1q-78 1 -119 36.5t-51 111.5q-2 18 -2 29
q0 98 58 220t131 173q22 16 59 26zM997 400q-9 6 -51 6q-15 0 -20 -1q-52 -9 -112 -37q-8 -3 -16 -2l-9 1l-13 -19q-27 -43 -40 -78l-4 -11l5 -2q18 -6 41 -6q64 0 136.5 39.5t86.5 84.5q4 11 4 16t-8 9zM270 981q1 0 7 0.5t10 0.5q15 0 25 -2q18 -4 37 -6
q75 -11 109.5 -45.5t41.5 -106.5q1 -8 1 -24q0 -86 -51.5 -173.5t-132 -142t-159.5 -51.5q-73 4 -111.5 48.5t-38.5 126.5q0 10 2 36q11 117 87.5 217t172.5 122zM289 770q-14 2 -16 2q-16 7 -61 -28.5t-72 -76.5q-13 -21 -13 -23t11 -4q9 -2 26 -2q113 0 200 118l5 7l-4 1
q-6 2 -76 6z" />
    <glyph glyph-name="ampersand" unicode="&#x26;" horiz-adv-x="968" 
d="M403 996q24 4 52 4q128 0 225 -78.5t97 -188.5q0 -28 -8 -58q-12 -47 -46.5 -81t-134.5 -105l-30 -24l4 -4q17 -6 45 -25q13 -8 27 -15.5t22 -10.5l7 -4l36 30q46 38 95 69t75.5 44.5t33.5 14.5q24 4 40.5 -34.5t16.5 -88.5q0 -48 -16 -77q-4 -10 -15.5 -20t-54.5 -44
l-52 -41l6 -4q42 -25 57 -42t23 -47q3 -10 3 -23q0 -49 -38 -96t-72 -47q-11 0 -18 6q-17 12 -46.5 51t-70.5 56l-24 9l-25 -19q-71 -47 -169 -70.5t-191 -23.5q-53 0 -98 8q-27 3 -51.5 13.5t-48 30t-37.5 54.5t-14 82q0 21 3 44q4 31 12 56t15.5 41.5t25.5 35.5t28.5 28.5
t37.5 32t41 34.5l13 11l-12 19q-57 86 -71 124q-17 44 -17 90q0 43 15 99q20 66 114 118.5t190 65.5zM488 785q-23 4 -50 4q-100 0 -157 -62q1 -2 5.5 -13.5t10 -21.5t13.5 -25t20 -32t27 -33l19 -21l31 24q6 5 76 55q44 31 68.5 52t27.5 26.5t1 6.5q-39 31 -92 40zM428 301
q-6 4 -36 32l-20 18l-51 -42q-34 -29 -68.5 -61t-34.5 -35q0 -4 26 -4q50 0 103 9q29 5 63.5 13t57 14.5t20.5 8.5l-3 2q-3 3 -9 7t-11 8q-2 2 -17 13.5t-20 16.5z" />
    <glyph glyph-name="quotesingle" unicode="'" horiz-adv-x="313" 
d="M242 983q16 1 33 -19t24 -48q5 -25 5 -44q0 -22 -4 -42q0 -3 -1 -7l-1 -7l2 -14q5 -28 5 -55q0 -17 -4 -53q0 -4 -1 -10t-1.5 -10t-0.5 -6q-3 -121 -115 -156q-25 -2 -39 22.5t-14 68.5q0 19 3 42l2 13l-6 7q-25 23 -61 39q-17 8 -24 27q-2 5 -6 6q-33 19 -30 96
q2 55 29 106.5t58 60.5q6 2 19 2q21 0 42.5 -7.5t30.5 -17.5q2 -3 7 0q2 1 12.5 2.5t22 2.5t13.5 1z" />
    <glyph glyph-name="parenleft" unicode="(" horiz-adv-x="516" 
d="M386 994q18 6 33 6q28 0 48 -19q40 -33 40 -123q0 -85 -37 -121l-14 -14q-67 -26 -88 -41q-36 -24 -70 -93.5t-34 -129.5q0 -26 8 -48q3 -7 10.5 -25.5t10 -24.5t9.5 -20.5t11 -20t12 -15.5t15 -13.5t17.5 -9t22.5 -7t26 -1.5h53l14 -16q35 -39 35 -121q0 -46 -13.5 -83
t-37.5 -47q-17 -7 -47 -7q-87 0 -142 37q-116 76 -188 192t-72 257q0 26 3 54q7 71 49.5 148t99 138t117.5 106.5t109 61.5z" />
    <glyph glyph-name="parenright" unicode=")" horiz-adv-x="517" 
d="M170 9q-28 -8 -57 -8q-50 0 -74 29q-31 37 -31 115q0 45 12 83t34 54q7 6 23 6q4 0 10.5 -0.5t8.5 -0.5q46 -3 80.5 20.5t51 62.5t24.5 74t8 65q1 51 -56 116.5t-104 65.5q-27 1 -38.5 7.5t-18.5 34.5t-7 88q0 81 19 117.5t82 57.5q11 3 24 3q33 0 76 -17.5t91 -57.5
t87.5 -96t66 -141.5t27.5 -185.5q0 -98 -54.5 -208t-134 -187.5t-150.5 -96.5z" />
    <glyph glyph-name="asterisk" unicode="*" horiz-adv-x="516" 
d="M287 996q8 4 11 4q14 0 25 -20t12 -49q0 -8 3 -26q6 -21 4 -48l-1 -14l7 6q63 52 68 57q32 27 51 27q18 0 30 -23q11 -21 11 -52q0 -32 -11 -55.5t-28 -19.5h-1q-7 0 -25 -15q-10 -10 -58 -50l-5 -4l7 -6q6 -6 24 -18q55 -40 64 -55q11 -22 11 -52q0 -50 -21 -68
q-8 -8 -15 -8q-8 0 -21 10q-3 2 -7.5 5.5t-10.5 8.5t-9 7q-27 19 -47 35q-37 32 -39 30q0 -2 -7 -42q-4 -28 -22 -44.5t-40 -16.5q-24 0 -36 22q-9 20 -12 52q-1 22 -5 30l-4 9l-16 -10q-43 -26 -48 -41q-9 -28 -28 -28q-23 0 -34 38q-4 16 -4 35q0 74 66 122q9 6 9 8l-5 2
q-4 2 -11.5 5t-13.5 6q-36 14 -57 16q-18 1 -29 24t-11 53q0 39 18 61q8 10 24 10q31 0 125 -42l19 -8q1 13 1 30q1 86 37 87q7 0 11 6q2 2 23 5z" />
    <glyph glyph-name="plus" unicode="+" horiz-adv-x="770" 
d="M443 102q-3 -2 -10 -2q-11 0 -21 5q-6 2 -11 0q-6 -2 -12 -2q-22 0 -30 10q0 2 -2 2l-10 -4q-12 -6 -22 -6q-31 0 -49.5 48.5t-18.5 129.5q0 25 1 37l1 34h-74q-104 0 -123 9q-26 13 -40 52.5t-14 88.5t14.5 88.5t40.5 51.5q8 3 19 3q20 0 39 -1q34 -2 58 -2q25 0 35 1
l45 1l2 43q11 178 74 178q8 0 11 -1q12 -2 14 1q15 27 45 27q7 0 13 -3q9 -3 14 1q10 8 22 8q13 0 25 -9q47 -33 47 -134q0 -27 -5 -65q-8 -49 -5 -52q1 0 7 -0.5t17 -1.5t22 -1q78 -5 107.5 -9.5t44 -13.5t25.5 -33q23 -43 23 -106q0 -86 -39 -125q-14 -15 -31 -15
q-10 0 -26 3q-26 4 -76 6q-66 4 -72 5l-17 2l1 -55q4 -173 -59 -194z" />
    <glyph glyph-name="comma" unicode="," horiz-adv-x="318" 
d="M126 315q13 5 35 -10q15 -13 45 -15q45 -4 74.5 -71t29.5 -160q0 -38 -4 -70q-17 -125 -86 -194q-15 -18 -24 -27q-17 -28 -39 -28q-16 0 -33 17q-32 37 -32 114q0 80 33 119q6 8 6 10q0 3 -22 4q-47 1 -71 30t-29 93q-1 8 -1 23q0 60 27.5 102.5t77.5 58.5q2 1 4.5 1.5
t4 1t2.5 0.5z" />
    <glyph glyph-name="hyphen" unicode="-" horiz-adv-x="608" 
d="M99 352q-10 -2 -16 -2q-23 0 -37 13q-38 34 -38 125q0 46 12.5 82.5t34.5 48.5q29 14 146 19q14 0 35 2.5t53 3.5q133 6 185 6q48 0 63 -4t27 -17q36 -36 36 -118q0 -59 -20 -102t-51 -37q-5 1 -56 1q-64 0 -138 -2q-13 -1 -31.5 -2.5t-34.5 -2.5q-64 -2 -97 -4
t-41.5 -2.5t-18.5 -3.5t-13 -4z" />
    <glyph glyph-name="period" unicode="." horiz-adv-x="302" 
d="M147 326q12 1 33 1q55 0 72 -17q42 -44 42 -128q0 -45 -16 -80q-7 -12 -7 -15q0 -10 -9 -35q-9 -24 -31.5 -37.5t-47.5 -13.5q-23 0 -36 12q-2 2 -15.5 3t-29 2.5t-20.5 2.5q-24 7 -34 16q-40 37 -40 121q0 48 16 86q2 9 7 21q9 30 44 45t72 16z" />
    <glyph glyph-name="slash" unicode="/" horiz-adv-x="542" 
d="M402 997q7 3 14 3q16 0 32 -14q10 -10 16 -10q27 0 48.5 -45t21.5 -101q0 -15 -1 -22q-5 -62 -29.5 -126.5t-86.5 -181.5q-57 -109 -75 -147.5t-53 -126.5q-31 -81 -70 -141q-13 -21 -36 -21q-14 0 -28 11l-8 6l-8 -17q-32 -64 -65 -64q-26 0 -47 41q-19 39 -19 87
q0 63 31 126q21 44 53 115q86 194 207 440q45 94 58 123q15 35 24 47.5t21 17.5z" />
    <glyph glyph-name="zero" unicode="0" horiz-adv-x="830" 
d="M410 997q20 3 53 3q59 0 120.5 -9t83.5 -24q61 -42 108 -113.5t47 -159.5q0 -105 -18.5 -212.5t-54 -204.5t-93 -167t-128.5 -91q-41 -19 -140 -19q-81 0 -155.5 15t-104.5 41q-59 53 -89.5 147.5t-30.5 209.5q0 140 43.5 276.5t120.5 224.5q54 63 110 63q19 0 28 -9
l4 -5l10 6q35 17 86 28zM535 674q3 21 3 38l-1 13l-4 -5q-12 -16 -34 -12q-24 3 -66.5 -8.5t-63.5 -36.5q-68 -86 -115 -215l-9 -24l1 -59q1 -61 3.5 -73.5t16.5 -20.5q16 -8 44 -8q41 0 84.5 16t60.5 42q39 59 80 353z" />
    <glyph glyph-name="one" unicode="1" horiz-adv-x="598" 
d="M339 2q-8 -2 -13 -2q-27 0 -43.5 40.5t-16.5 105.5q0 43 7 85q21 131 19 208l-1 35l-48 -39q-93 -74 -128 -74q-14 0 -26 9q-10 8 -22 38.5t-12 47.5q0 7 -10 16q-37 27 -37 115q0 70 27 103q18 20 187 140q37 27 107 70.5t80 50.5q64 49 106 49q21 0 36 -13
q39 -36 39 -118q0 -41 -7 -90q-20 -158 -28 -536q-3 -112 -7 -127q-7 -31 -24 -52t-33 -19h-5q-17 0 -24 -7t-39 -11t-46 -3q-1 1 -3 1q-8 0 -19 -11q-13 -11 -16 -12z" />
    <glyph glyph-name="two" unicode="2" horiz-adv-x="828" 
d="M768 0q-10 -6 -17 -6t-22 6q-54 21 -201.5 40.5t-274.5 24.5q-88 4 -113.5 9t-40.5 22q-35 43 -35 127q0 56 18 98q11 23 34 43.5t87 62.5q108 71 168 120.5t94 94.5q20 28 20 31q0 4 -18 13q-34 19 -85 19q-67 0 -129 -32q-97 -49 -119 -92q-25 -50 -55 -50
q-29 0 -50 43t-21 113q0 71 22.5 114t86.5 91q73 55 164 84.5t181 29.5q112 0 194.5 -45.5t106.5 -132.5q17 -66 17 -118q0 -62 -20.5 -113.5t-52 -85t-62 -56.5t-58.5 -40t-34 -23q-20 -23 -20 -25q0 -3 30 -7q22 -4 90 -19.5t88 -21.5q25 -7 43 -26q36 -41 36 -134
q0 -54 -14 -99t-38 -60z" />
    <glyph glyph-name="three" unicode="3" horiz-adv-x="790" 
d="M193 4q-107 -5 -117 -3q-24 4 -38.5 40.5t-14.5 82.5q0 60 25 97q10 15 36.5 19t110.5 8h11t10.5 0.5t12.5 0.5q34 2 67 2.5t50 0.5t31.5 0.5t19.5 2t5 5.5q0 12 -209 62q-13 3 -32 7.5t-27.5 6.5t-21 5.5t-18 7t-11.5 9t-10 12.5q-18 36 -18 83q0 39 12 71t32 42
q6 3 68 20q13 3 41 10l54 13.5t58 15t58 16.5t48 15.5t34 15t11 13.5t-14 11t-40 9t-46 6t-53.5 5t-41.5 4q-66 6 -119 6q-45 0 -47 -6q-18 -30 -40 -30q-20 0 -37 23q-25 35 -25 107q0 103 43 148q29 32 118 32q78 0 238 -27q373 -66 375 -298q0 -94 -26 -145t-111 -81
q-10 -3 -10 -5q0 -1 13 -9q116 -55 116 -179q0 -41 -15 -101q-21 -78 -146.5 -108t-409.5 -43z" />
    <glyph glyph-name="four" unicode="4" horiz-adv-x="910" 
d="M534 997q15 3 32 3q28 0 48 -9q16 -7 24 -3q10 2 14 2q45 0 79.5 -100.5t34.5 -231.5q0 -18 -2 -52q-1 -20 -2 -41t-2 -33.5t-1 -13.5q0 -5 6.5 -6.5t35.5 -2.5q54 -2 77.5 -36.5t23.5 -111.5q-1 -78 -26 -111t-84 -33h-37v-60q1 -68 -19 -112.5t-48 -44.5q-15 0 -29 13
q-6 6 -9 6t-7 -4q-13 -8 -23 -8q-27 0 -47.5 44t-25.5 116q-4 55 -5 56q-2 2 -112 -3q-96 -4 -179 -4q-98 0 -146 12.5t-65 36t-29 77.5q-3 33 -3 63q0 129 67 232t245 234q94 69 136 93.5t78 32.5zM542 613q-4 93 -5 93q-12 -4 -51 -26q-30 -19 -122.5 -88.5t-102.5 -80.5
q-1 -1 -1 -3t21 -2q49 1 154.5 5.5t106.5 6.5q1 0 1 22q0 8 -0.5 32.5t-0.5 40.5z" />
    <glyph glyph-name="five" unicode="5" horiz-adv-x="857" 
d="M377 995q8 4 20 4q21 0 31 -10q8 -8 14 -8q13 5 130 12t179 7q28 0 42.5 -1.5t22.5 -8t9.5 -12.5t4.5 -23.5t7 -31.5q12 -45 12 -93q0 -50 -14 -81.5t-38 -27.5q-25 4 -79 4q-138 0 -271 -18l-16 -2l-20 -42q-19 -40 -19 -43q12 0 68 3q32 2 47 2q112 0 166 -40t79 -135
q11 -46 11 -85q0 -126 -97 -220.5t-263 -128.5q-73 -16 -216 -16q-121 0 -137 13q-42 31 -42 127q0 45 12 81.5t34 48.5q10 5 85 5q235 0 317 27q16 5 38 13.5t40.5 18t17.5 14.5q-1 6 -60 9.5t-144.5 5t-106.5 2.5q-150 10 -182 51q-3 10 -9.5 30.5t-9.5 32.5t-6 30.5
t-3 35.5q0 76 54 184q37 75 43.5 91.5t9.5 38.5q5 45 21.5 74.5t36.5 29.5q16 0 83.5 4.5t70.5 9.5q2 3 27 18z" />
    <glyph glyph-name="six" unicode="6" horiz-adv-x="846" 
d="M517 983q53 17 165 17h20h16l5 -1q30 -3 47 -57.5t17 -114.5q0 -27 -5 -47q-3 -5 -14.5 -9t-29.5 -9.5t-30 -10.5q-26 -11 -108.5 -35.5t-109.5 -42.5l-24 -16l22 -3q10 -2 40.5 -6.5t42 -6.5t39.5 -8t41 -11.5t37 -16t36.5 -22t31 -29t29.5 -38t22.5 -48t19.5 -59.5
q11 -50 11 -91q0 -120 -82.5 -197t-227.5 -104q-60 -17 -129 -17q-108 0 -203 37.5t-132 103.5q-56 100 -56 232q0 70 20 121q4 9 7 28q2 11 7 21.5t12.5 22.5t10.5 19q29 65 98 151.5t129 127.5q132 90 225 119zM508 418q-28 6 -104 6q-19 0 -22 -1q-10 -2 -29 -4
q-51 -8 -95 -27l-29 -12l-6 -20q-4 -11 -4 -23q0 -44 55 -68t144 -21q67 2 130.5 22t82.5 50q10 17 -35 52.5t-88 45.5z" />
    <glyph glyph-name="seven" unicode="7" horiz-adv-x="827" 
d="M392 998q30 2 67 2q83 0 178 -6.5t120 -15.5q49 -16 52 -111q0 -25 5 -53q5 -18 5 -46q0 -68 -28 -101q-8 -9 -12 -31q-2 -11 -6 -19t-15 -24.5t-25.5 -37t-46 -67.5t-67.5 -104q-49 -77 -100.5 -142t-94 -105t-74.5 -66t-57.5 -43.5t-27.5 -19.5q-10 -8 -20 -8
q-25 0 -42 36l-9 17l-12 -14q-21 -21 -38 -21q-24 0 -40 34t-16 83q0 60 24 109q16 32 103 155q17 23 49.5 69t40.5 57q10 14 33.5 39t26.5 29q13 15 30 41l11 17l-138 -2q-106 -2 -114 -2q-16 0 -27 0.5t-17 1t-10.5 3.5t-5.5 4t-4 6.5t-5 7.5q-8 13 -19 13q-27 0 -42.5 31
t-15.5 75q0 77 40 114q30 28 113.5 54t175.5 35q10 1 23.5 2.5t21.5 2.5t10 1z" />
    <glyph glyph-name="eight" unicode="8" horiz-adv-x="838" 
d="M321 1001q23 4 58 4q82 0 169 -24.5t125 -64.5q40 -26 60 -82t20 -121q0 -56 -13.5 -101.5t-36.5 -63.5q-12 -14 -12 -17q0 -4 14 -10q61 -26 93 -81t32 -123q0 -75 -38 -144t-105 -104q-66 -35 -163 -54.5t-191 -19.5q-119 0 -178 30q-66 32 -106.5 109.5t-40.5 165.5
q0 105 59 174l17 20l-8 17q-34 77 -34 157q0 122 75 216t204 117zM522 744q-24 7 -87 7q-119 0 -151 -16q-24 -12 -50 -35t-26 -32q0 -6 21.5 -21.5t48.5 -29.5l38 -19l53 20q39 14 101 31t101.5 27.5t42.5 15.5q1 2 -5 7t-16.5 11.5t-22.5 13t-25 12t-23 8.5zM336 351
q-64 -23 -110 -46t-46 -31q0 -15 56 -24t134 -9q183 0 245 44l11 5l-12 5q-5 2 -24.5 10.5t-34 15t-35.5 14t-37 11.5q-8 2 -27 7t-32.5 7.5t-27.5 2.5q-29 0 -60 -12z" />
    <glyph glyph-name="nine" unicode="9" horiz-adv-x="796" 
d="M411 1003q9 1 29 1q92 0 180.5 -46.5t121.5 -121.5q46 -101 46 -284q0 -199 -53 -320q-42 -97 -133.5 -146t-253.5 -77q-72 -13 -197 -13q-61 0 -67 2q-30 5 -49 51t-19 102q0 57 20 91q15 25 68 25q13 0 39 -2t38 -2q52 1 150 14.5t129 24.5q6 2 18.5 7.5t23 11t9.5 5.5
l-39 4q-9 0 -51.5 -3t-83.5 -3q-12 -1 -36 -1q-139 0 -178 28q-52 36 -83.5 105.5t-31.5 149.5q0 83 36 156q46 93 158.5 162t208.5 79zM464 735q-18 2 -27 2q-50 0 -92 -21q-77 -39 -130 -116q-7 -8 -7 -12q0 -2 8 -5q23 -7 61 -7q23 0 47 3q5 0 28 3t36 4l43 5
q151 48 189 62q4 2 2 6q-11 26 -61.5 48.5t-96.5 27.5z" />
    <glyph glyph-name="colon" unicode=":" horiz-adv-x="293" 
d="M121 329q5 1 14 1q25 0 36 -12q3 -3 4 -3q2 0 10 5q11 8 25 8q31 0 53 -43.5t22 -103.5q0 -31 -8 -68q-12 -48 -51 -80.5t-79 -32.5q-28 0 -48 17q-10 8 -12 8q-5 0 -19.5 15t-20.5 27q-22 44 -22 106q0 87 38 128q17 19 58 28zM103 797q14 4 23 2q68 -13 81 -19.5
t27 -35.5q23 -48 23 -109q0 -82 -37 -125q-16 -18 -36 -18q-12 0 -27 4l-23 4l-13 -8q-23 -16 -39 -16q-32 0 -53 46t-21 106q0 59 22 102q17 32 33 47t40 20z" />
    <glyph glyph-name="semicolon" unicode=";" horiz-adv-x="354" 
d="M190 329q2 1 8 1q19 0 42.5 -16.5t35.5 -40.5q20 -40 23 -90q0 -15 6 -29q22 -50 28 -114q2 -16 4 -28q9 -43 9 -72q0 -89 -70 -113q-5 -2 -13 -2q-26 0 -45.5 35t-26.5 95l-1 14l-9 5q-27 18 -73 26q-22 4 -32 23q-4 4 -8 5q-40 13 -56 93q-4 21 -4 48q0 50 15.5 93
t39.5 56q19 11 50 11q36 0 52 -13q3 -2 7 2q8 8 18 11zM124 798q18 3 36 3q32 0 43 -17q4 -5 25 -7.5t24 -1.5q6 2 10 2q23 0 36.5 -33t13.5 -81q0 -51 -15 -96q-16 -50 -51 -57q-6 -2 -45 -2q-88 0 -113 5q-26 6 -43 45.5t-17 89.5q0 22 5 50q18 90 91 100z" />
    <glyph glyph-name="less" unicode="&#x3c;" horiz-adv-x="735" 
d="M475 868q-45 -13 -73 -24t-94 -44q-95 -45 -142 -64q-54 -21 -73 -31.5t-36 -27.5q-49 -47 -49 -138q0 -60 25 -107q15 -29 55 -58t148 -89q119 -66 237 -142q25 -15 66.5 -29t74.5 -14q30 0 43 12q22 19 39.5 62.5t17.5 88.5q0 40 -14 69q-10 21 -23.5 32t-84.5 55
q-96 59 -144 86l-33 19q0 1 192 76q30 9 44 12q28 7 38 14t20 28q18 35 18 89q0 45 -13 86t-32 58q-14 13 -49 13q-49 0 -158 -32z" />
    <glyph glyph-name="equal" unicode="=" horiz-adv-x="535" 
d="M227 201q6 -1 26 -1q38 0 76 4q21 3 71 3q42 0 53 2t21 11q38 36 38 119q0 44 -13 79t-35 47q-11 6 -66 6q-42 0 -67 -4q-32 -4 -65 -4q-30 0 -47 2q-40 4 -64 4q-34 2 -56 5q-9 1 -23 1q-18 0 -27.5 -7.5t-19.5 -28.5q-21 -42 -21 -97q0 -44 13.5 -78.5t36.5 -44.5
q17 -9 116 -14q37 -2 53 -4zM404 535q-72 -3 -186 -3q-140 0 -147 4q-23 11 -35.5 46t-12.5 79t13 80t36 48l9 5l154 1q171 2 192 4q7 0 17.5 0.5t13.5 0.5q18 0 30 -11q39 -35 39 -121q0 -84 -38 -117q-10 -9 -22.5 -11.5t-62.5 -4.5z" />
    <glyph glyph-name="greater" unicode="&#x3e;" horiz-adv-x="672" 
d="M69 896q7 4 18 4q38 0 269 -102q159 -69 211.5 -99.5t71.5 -64.5q25 -44 25 -110q0 -97 -47 -144q-22 -20 -99 -52q-155 -65 -234.5 -106t-163.5 -101q-30 -21 -43 -21q-12 0 -28 14q-41 36 -41 127q0 85 38 125q24 24 106 74t146 79l8 4t6 4l1 2q-11 6 -142 62
q-54 23 -88 30q-27 6 -44 42q-20 41 -20 99q0 47 13.5 84.5t36.5 49.5z" />
    <glyph glyph-name="question" unicode="?" 
d="M166 261q17 14 75 14q53 0 76 -15q51 -33 51 -111q0 -54 -24 -105q-21 -44 -52 -44q-4 0 -14 2q-12 3 -48 5.5t-46 1.5q-19 -1 -31.5 7t-24.5 31q-25 52 -25 96q0 74 63 118zM283 999q12 1 37 1q139 0 227.5 -75.5t88.5 -193.5q0 -38 -10 -77q-15 -56 -46.5 -89
t-111.5 -77q-83 -47 -102 -62.5t-34 -51.5q-26 -61 -69 -61q-37 0 -58 47q-17 39 -17 81q0 55 28 120q25 57 51.5 81t96.5 64q30 17 30 18q0 6 -73 6q-78 0 -132 -6q-67 -8 -84 -24q-14 -13 -29 -13q-28 0 -48 39.5t-20 93.5q0 29 8 61q15 59 62 83.5t158 31.5q42 2 47 3z
" />
    <glyph glyph-name="at" unicode="@" horiz-adv-x="1022" 
d="M566 -8q-17 -2 -54 -2q-118 0 -232 33t-167 86q-105 104 -105 291q0 137 60.5 271.5t168.5 220.5q71 57 171.5 87.5t205.5 30.5q124 0 223 -43.5t141 -127.5q36 -71 36 -197q0 -100 -24 -197.5t-67 -157.5q-40 -56 -220 -119q-1 0 -1 -1q0 -4 5 -17q8 -24 8 -52
q0 -46 -15 -73q-10 -16 -20 -20q-14 -6 -114 -13zM418 187q40 -5 115 -5q73 0 77 4q2 2 -7 17q-23 41 -23 111v6q0 6 -2 6q-3 0 -22 -13q-79 -57 -154 -57q-65 0 -105 45t-39 123q0 130 91.5 225.5t205.5 95.5q49 0 91 -19q31 -13 43 -29q5 -5 15 -3q20 2 34.5 -22.5
t16.5 -67.5q4 -61 -40 -128q-11 -17 -25.5 -67t-9.5 -54q5 -5 39.5 19t55.5 47q81 84 81 182q0 31 -4 44t-23 38q-41 55 -106.5 84t-140.5 29q-119 0 -217 -66q-89 -60 -144 -159t-51 -192q4 -75 70.5 -127.5t177.5 -66.5zM373 451q4 -2 24 -2q28 0 50 4q20 5 56.5 27.5
t63 44t20.5 25.5q-5 4 -22 4q-58 0 -96 -19q-20 -10 -44.5 -28.5t-40 -35t-11.5 -20.5z" />
    <glyph glyph-name="A" unicode="A" horiz-adv-x="922" 
d="M490 973q32 0 72.5 -13.5t69.5 -36.5q102 -85 165.5 -210.5t97.5 -323.5q5 -29 12 -106.5t6 -91.5q-9 -99 -31 -130t-83 -33h-6q-44 0 -63 18q-26 24 -37 48t-19 89l-2 10l-7 3q-3 1 -11.5 5t-10.5 5t-9 3.5t-10.5 3t-10.5 2.5t-12.5 2.5t-14 1.5t-18 1h-21.5h-3
q-42 0 -108 -6l-64 -5l-9 3q-22 9 -39.5 43.5t-23.5 80.5l-3 21l-3 -6q-1 -2 -2.5 -7.5t-4 -15.5t-4.5 -17q-11 -32 -16 -59q-5 -18 -11 -36l-8.5 -25.5t-4.5 -16.5t-3 -19q0 -43 -7 -69t-27 -41.5t-38 -15.5t-59 9q-53 10 -77 35t-24 83q0 83 56 279q11 35 20 69
q36 130 123 259.5t152 171.5q28 17 105 35q1 0 26 3zM515 686h-1q-20 0 -38 -5q-31 -9 -63 -56q-13 -18 -49.5 -80.5t-37.5 -68.5q0 -1 3 -1t12.5 3t28 7t40.5 6q92 11 103 11h2q86 0 142 -13l15 -4l-1 4q-19 53 -60 116.5t-75 77.5q-6 3 -21 3z" />
    <glyph glyph-name="B" unicode="B" horiz-adv-x="928" 
d="M439 998q50 2 72 2q320 0 366 -170q11 -42 11 -80q0 -155 -161 -220q-11 -10 -11 -12t10 -5q70 -22 101 -45q44 -31 68.5 -86.5t24.5 -114.5q0 -106 -66 -150q-42 -28 -111 -42t-210 -23q-208 -15 -383 -39l-93 -13l-10 5q-39 19 -39 99q0 41 13.5 72.5t36.5 35.5
q6 1 8.5 10t4.5 48.5t2.5 103t0.5 188.5q0 231 2 257q7 79 12 96q15 48 45 48q21 0 36 -29l5 -9l4 7q17 30 27 35q8 4 17 4q16 0 23 -9q2 -2 3 -2t28 8q75 26 163 30zM567 772q-102 17 -173 17q-31 0 -54 -5l-11 -3l-10 -111q0 -16 -0.5 -36t-0.5 -25q1 -28 4 -28q1 1 19 5
q110 24 243 92q87 46 80 61q-30 24 -97 33zM455 436q-47 13 -106 13q-26 0 -32 -4q-5 -5 -18 -117q-1 -12 -2 -25t-2.5 -25t-1.5 -15q-2 -12 -2 -13q0 -5 8 -5q9 0 37 3q51 5 248 19q112 7 128 23q2 1 -11.5 13t-33 27.5t-33.5 23.5q-104 59 -179 82z" />
    <glyph glyph-name="C" unicode="C" horiz-adv-x="845" 
d="M593 970h-1q-76 0 -141 -15t-131 -50t-126 -102t-110 -163q-76 -149 -76 -284q0 -96 38 -169t107 -111q86 -46 176 -46h3q66 0 183 23q76 16 127 26q63 13 81 20.5t33 26.5q25 31 39 77.5t14 91.5q0 54 -19 82q-16 22 -37 23h-1q-10 0 -33 -5q-199 -43 -260 -52
q-25 -4 -60 -4h-1q-57 0 -107 15t-77 40l-9 8l9 21q41 97 147.5 166.5t206.5 69.5h1q33 0 58 -7q24 -7 34.5 -14.5t16.5 -22.5q21 -52 55 -52q29 0 55.5 37t40.5 101q8 37 8 66q0 84 -50.5 139.5t-135.5 61.5q-38 2 -58 2z" />
    <glyph glyph-name="D" unicode="D" horiz-adv-x="830" 
d="M173 999q3 1 14 1q23 0 51.5 -4.5t36.5 -12.5l8 -8l12 3q39 11 80 11q91 0 190 -43.5t168 -115.5q89 -92 89 -249q0 -42 -5 -73q-31 -205 -280 -382q-49 -34 -115 -66t-107 -41q-40 -10 -59 -16q-9 -3 -31 -3q-62 0 -77 16q-10 11 -17 11q-26 0 -49.5 27t-29.5 71
q0 1 -12.5 55.5t-22 118t-9.5 121.5q0 25 1 38q9 143 9 158q7 146 27 217q1 2 19 19t19 28q5 46 34 79.5t56 39.5zM439 706q-19 4 -56 4q-40 0 -67 -5l-11 -2l-1 -11q-5 -138 -23 -289q-9 -74 -10 -85l-3 -26h1q6 0 21 3q20 5 28 5q16 0 80.5 34t105.5 64q106 76 159 157
q10 17 10 21q0 9 -31 33q-106 82 -203 97z" />
    <glyph glyph-name="E" unicode="E" horiz-adv-x="852" 
d="M677 994l26 6q5 -1 11 -3q24 -7 37.5 -43t13.5 -82q0 -41 -11 -73t-32 -43q-4 -2 -32 -8q-82 -14 -192 -74q-25 -13 -25 -15h1q1 0 3.5 0.5t6 1t7.5 0.5q98 19 119 19q19 0 27.5 -7.5t18.5 -27.5q19 -38 19 -86q0 -46 -17.5 -86.5t-48.5 -61.5q-4 -3 -80 -44
q-201 -108 -192 -113q4 -1 114 5q231 12 298 12q43 0 50 -4q21 -10 33 -44t12 -76q0 -81 -36 -113q-9 -8 -25.5 -10t-79.5 -3q-123 -3 -309 -15q-106 -6 -190 -6q-66 0 -86 4q-56 11 -82.5 48.5t-27.5 107.5q0 67 26.5 115t93.5 103l19 15l-9 12q-35 42 -35 115q0 88 49 157
q64 90 228.5 189.5t296.5 127.5z" />
    <glyph glyph-name="F" unicode="F" horiz-adv-x="845" 
d="M837 813q0 -41 -13.5 -68t-34.5 -28q-13 0 -24 10l-6 4l-1 -3q-13 -37 -50 -37h-1q-21 0 -79 13q-24 6 -80 14q-32 5 -62 5h-1q-108 0 -157 -26q-7 -4 -19 -30.5t-10 -34.5q3 -11 59 -11q200 -32 230 -39q51 -12 63 -25q37 -37 37 -117q0 -72 -32 -91q-21 -12 -101 -12
h-2q-50 0 -107 3q-13 1 -42 1h-2q-46 0 -67 -2l-34 -3l4 -48q4 -45 4 -49q0 -3 -0.5 -7t-1 -12t-0.5 -18q-1 -12 -1 -24q0 -7 1 -10q8 -37 8 -66q0 -76 -39 -81h-3h-1q-14 0 -21 3q-5 -3 -12 -3q-51 0 -62 8q-2 1 -3 2l-1 1h-1q-1 0 -5 -7q-2 -3 -5 -8.5t-4.5 -7.5t-4 -4.5
t-5 -3.5t-6.5 -1q-17 0 -34 20q-34 43 -40 92q-6 38 -25 110q-8 30 -15.5 42.5t-8.5 25.5q-2 26 -2 38q0 91 41 144l9 11l-2 2l-7 7q-50 53 -50 178q0 94 33 154q37 65 111 108t158 56q52 8 130 11q23 1 75 1h3q122 0 209 -26q110 -32 110 -161z" />
    <glyph glyph-name="G" unicode="G" horiz-adv-x="876" 
d="M586 986q6 1 19 1q57 0 99 -16q52 -18 84 -71t32 -119q0 -26 -6 -53q-7 -37 -24 -58t-37 -21q-27 0 -46 36q-11 20 -34.5 26.5t-72.5 5.5q-8 1 -23 1q-132 0 -240 -96t-130 -249q-3 -21 32 -47.5t78 -35.5q39 -9 82 -9q112 0 231 57q30 14 30 18q0 1 -14 3q-22 2 -37 2
q-74 0 -146 -20q-3 -1 -10 -1q-28 0 -45 43t-17 98q0 95 43 119q14 8 66 18t87 12q131 5 206 -61.5t75 -186.5q0 -20 -1 -30q-7 -103 -60 -169t-166 -114q-131 -56 -259 -56t-220.5 57.5t-121.5 161.5q-32 117 -32 226q0 247 160 371q59 67 172.5 104t219.5 50q23 2 26 3z
" />
    <glyph glyph-name="H" unicode="H" horiz-adv-x="844" 
d="M213 999q24 7 49 -18q58 -58 58 -208q0 -16 -2 -56q-2 -24 -0.5 -37t2.5 -15.5t6 -7.5q6 -5 44 -5h57q14 -1 30 -1q43 0 53 8q6 5 11.5 23.5t10.5 43t6 28.5q4 14 5 61q3 83 26 129q10 19 37 30t57 11q35 0 49 -13l7 -6l13 14q18 18 34 18q29 0 49.5 -43t20.5 -103
q0 -33 -7 -64q-5 -25 -6 -48q-1 -4 -4.5 -32t-5.5 -43q-7 -41 -13 -126t-14 -148q-5 -44 -11.5 -153t-11.5 -131q-5 -20 -12 -35.5t-14 -25.5t-18.5 -17.5t-18.5 -11t-20.5 -5.5t-17.5 -2.5t-18 0.5h-13q-2 0 -20 -3q-4 -1 -14 -1q-58 0 -75 54q-13 38 -16.5 70t-3.5 107
q-3 56 -17 70q-6 6 -23.5 8.5t-31.5 2.5l-14 -1q-83 0 -101 -2h-1q-4 0 -7 -4t-5 -18.5t-2 -26.5l-1 -13q-4 -185 -62 -230q-13 -10 -43 -10q-34 0 -43 11q-3 3 -5 3t-11 -9q-17 -18 -35 -18q-22 0 -40.5 23.5t-28.5 64.5q-23 98 -23 202q0 62 10 112q5 25 11 116
q2 40 4 93.5t3.5 89t3.5 71.5t4 58.5t5 33.5q0 34 10.5 56t19.5 28.5t28.5 13t23.5 8.5q8 5 16 12q4 4 18 7.5t29.5 6t18.5 3.5z" />
    <glyph glyph-name="I" unicode="I" horiz-adv-x="407" 
d="M324 987q-3 0 -9 -2q-3 -2 -8.5 -12.5t-8.5 -10.5h-1q-1 1 -2 1q-18 20 -48 20t-58 -24q-29 -30 -40.5 -72t-26.5 -143q-19 -137 -38 -243q-6 -36 -20.5 -92.5t-15.5 -66.5q-5 -28 -8 -41t-11 -37t-15 -46q-6 -18 -6 -50q0 -97 35 -143q5 -4 15 -4h1q27 0 47 23h1
q3 0 11 -10q24 -21 49 -21q44 1 77.5 58.5t40.5 106.5l14 93q2 12 5 29.5t6.5 40t5.5 32.5q8 60 29 165q21 108 29 168q1 7 13 54.5t12 77.5q0 75 -24.5 112t-50.5 37z" />
    <glyph glyph-name="J" unicode="J" horiz-adv-x="863" 
d="M462 2q-38 -3 -74 -3q-249 0 -330 124q-50 75 -50 197q0 121 48 166q1 1 11.5 9t18.5 15.5t10 11.5q7 24 32.5 34t50.5 10q40 0 67 -75q3 -7 11 -28.5t11.5 -31t11.5 -27.5t14.5 -28t16 -22.5t19.5 -20.5q16 -15 40 -15q18 0 60 17q38 15 73 81.5t36 152.5q3 164 31 301
q14 63 33 87t58 24q31 0 49 -18l10 -10l6 10q22 37 51 37q26 0 47 -31t27 -84q4 -33 4 -75q0 -77 -17 -162q-18 -92 -35 -294q-2 -27 -2.5 -66t-3.5 -70.5t-12 -63.5q-7 -23 -61.5 -64t-112.5 -60q-46 -15 -72 -20t-77 -8z" />
    <glyph glyph-name="K" unicode="K" horiz-adv-x="836" 
d="M76 996q8 4 27 4q48 0 67 -17l50 -9l13 6q12 5 18 5q48 0 58 -192q3 -38 8 -38q6 0 39 30q101 89 202 148t141 59q42 1 77 -69t35 -145q0 -56 -23 -91q-4 -6 -12 -13t-15 -11.5t-15 -9.5t-9 -6q-3 -3 -103 -52.5t-118 -67.5q1 -14 125 -98t129 -90q37 -46 47.5 -76
t10.5 -89q1 -71 -41.5 -109.5t-94.5 -38.5q-26 0 -45 10q-8 4 -23 8.5t-28 13t-29 30.5q-121 86 -174 131q-21 11 -42.5 24.5t-31.5 20.5t-11 6l-1 -4q-1 -5 -2 -13t-2 -15q-15 -89 -32 -152q-10 -40 -33.5 -63t-48.5 -23q-35 0 -52 39q-3 7 -23 7q-7 0 -9 -1q-10 -2 -15 -2
q-38 0 -61 47t-21 119q0 2 3.5 42t7 93t3.5 102q1 71 2 188q2 210 9.5 277t42.5 85z" />
    <glyph glyph-name="L" unicode="L" horiz-adv-x="856" 
d="M217 973q11 7 20 7t19 -7l17 -11q4 -4 20 -6q44 -7 93 -72.5t49 -149.5q0 -21 -5 -49q-19 -92 -46 -197q-31 -128 -30 -129q18 1 39 5q84 14 165 14q104 0 173 -25t93 -70q24 -44 24 -100q0 -53 -21.5 -92t-52.5 -39q-19 0 -38 16q-44 40 -234 40q-99 0 -193 -13.5
t-145 -37.5q-32 -16 -45 -18q-11 -2 -18 -7q-13 -12 -28 -12q-27 0 -46 40.5t-19 98.5q0 35 7 67q19 81 67 220q28 81 58 216.5t30 182.5q0 43 13.5 79t33.5 49z" />
    <glyph glyph-name="M" unicode="M" horiz-adv-x="984" 
d="M807 997q12 3 23 3q63 0 102 -90q17 -42 24.5 -106t11.5 -207q1 -104 6 -236q2 -94 2 -121q0 -86 -8 -130t-28 -75q-22 -35 -52 -35q-27 0 -52 29.5t-42 82.5q-22 70 -42 178q-2 11 -4 22.5t-3 17.5l-1 7q-8 -11 -16 -25q-116 -192 -218 -192q-46 0 -91.5 39.5
t-77.5 107.5l-16 33l-5 -12q-60 -146 -92 -199t-62 -53q-8 0 -16 3q-11 3 -12 -1q0 -2 -11 -15q-19 -21 -39 -21q-30 0 -52.5 40t-26.5 103q-1 6 -1 19q0 80 73 265q193 486 273 546q15 9 30 9q40 0 68 -54q7 -13 26.5 -36t35.5 -43.5t30.5 -64.5t15.5 -102q0 -17 1 -45
l3 -88v1q0 2 1 2q9 0 75 130q34 68 62 129t38 85t25 48.5t38 47.5q1 0 2 1z" />
    <glyph glyph-name="N" unicode="N" horiz-adv-x="884" 
d="M705 999q3 1 10 1q32 0 51 -32q0 -3 3 -3l1 1q2 0 4 1l4 2q10 6 21 6q33 0 55 -46.5t22 -111.5q0 -39 -9 -78q-6 -19 -12 -56q-8 -45 -29.5 -125.5t-35.5 -122.5q-13 -47 -22 -90q-35 -161 -79 -233t-110 -72q-19 0 -41 6q-59 16 -97.5 73t-97.5 216q-4 10 -7.5 20t-7 17
t-6 13t-4.5 9l-1 2q-2 -2 -4 -17q-68 -323 -128 -335q-7 -1 -11 -9q-18 -35 -58 -35q-32 0 -61 24t-39 64q-8 25 -8 89q0 128 28 294q12 66 24 147q14 88 35 154q3 8 29.5 32.5t29.5 35.5q11 51 31 79.5t44 28.5q7 0 19 -5q6 -4 12 -2q4 2 13 2q28 0 47 -27q24 -33 119 -239
q9 -20 17 -37.5t15.5 -33t14 -29t12 -24.5l9.5 -19t7.5 -13.5t5 -8.5t2.5 -2q5 5 40 139q47 179 80.5 260.5t62.5 89.5z" />
    <glyph glyph-name="O" unicode="O" horiz-adv-x="958" 
d="M490 949q30 3 60 3q97 0 182.5 -29t135.5 -80q82 -82 82 -221q0 -136 -80 -257q-51 -77 -134 -148.5t-160 -105.5q-141 -63 -278 -63q-140 0 -208 65q-82 79 -82 236q0 204 130 422q3 5 9.5 18t9.5 18q7 14 46 55t59 54q40 27 89 27q21 0 35 -5q12 -3 17 -3q8 0 33 5
q31 7 54 9zM624 633q-31 3 -65 3q-106 0 -185 -28q-31 -10 -73.5 -29.5t-47.5 -24.5q-43 -60 -72 -144l-8 -24l5 -4q33 -19 111 -19q105 0 192 29q66 22 143 75t120 108q11 12 11 16t-10 8q-47 24 -121 34z" />
    <glyph glyph-name="P" unicode="P" horiz-adv-x="899" 
d="M430 999h15q5 1 17 1q49 0 120.5 -16t111.5 -37q43 -22 73.5 -43t61 -53.5t46.5 -78t16 -101.5q0 -48 -13 -104q-25 -114 -136.5 -189t-314.5 -130q-15 -4 -96.5 -23t-84.5 -19q-1 -18 -2 -39q-2 -73 -21 -111.5t-51 -32.5q-8 1 -29 0t-26 -6q-17 -17 -31 -17
q-32 0 -53 37t-24 101q-1 12 -1 40q0 100 17 204q2 12 6 38.5t5 34.5q12 73 35 207l17 92l-3 16q-4 19 -4 44q0 80 35 117q3 4 29 11.5t27 9.5q18 27 40 27q6 0 18 -5l7 -3l19 5q76 20 174 23zM517 733q-29 3 -63 3q-40 0 -88 -5q-26 -2 -29 -4t-5 -17q-1 -5 -12 -65
l-33 -166q2 -2 73 15.5t102 26.5q75 22 141.5 57.5t95.5 68.5l7 9l-3 5q-8 10 -32 25t-47 24q-34 14 -107 23z" />
    <glyph glyph-name="Q" unicode="Q" horiz-adv-x="986" 
d="M431 997q23 3 48 3q83 0 172 -28t150 -73q85 -63 131 -160.5t46 -206.5q0 -192 -127 -340l-14 -15l25 -23q30 -28 42 -57.5t14 -82.5q3 -71 -19 -117.5t-56 -46.5q-20 0 -39 19l-28 24q-50 40 -106 96q-24 24 -30 24q-4 0 -26 -10q-98 -45 -196 -45q-136 0 -244.5 78
t-145.5 209q-20 75 -20 159q0 183 78 342q8 14 10 46q4 71 31 114q10 16 22.5 22t54.5 17q51 13 59 18q30 13 47 14q11 0 60 9q41 9 61 11zM570 684q-32 5 -91 5q-32 0 -41 -2q-62 -7 -95 -17q-12 -3 -40 -9l-17 -6l-19 -19q-33 -34 -62 -91.5t-39 -108.5q-4 -16 -4 -27
t13 -30q34 -48 97.5 -79.5t132.5 -31.5q8 0 8 2q0 3 -16 22q-47 54 -47 151q0 47 14 85.5t40 54.5q13 8 22 8q14 0 32 -16.5t55 -62.5q41 -51 89.5 -106t52.5 -55q7 0 46 34.5t58 56.5q21 24 37.5 55.5t16.5 40.5q0 1 -15 22q-32 43 -93.5 77t-134.5 47z" />
    <glyph glyph-name="R" unicode="R" horiz-adv-x="864" 
d="M109 995q10 5 48 5q87 0 103 -16l11 -11l19 6q50 15 106 15q121 0 257 -68q101 -50 147 -108.5t54 -145.5q2 -22 2 -33q0 -85 -42.5 -149t-131.5 -117q-30 -17 -30 -19q20 -17 45 -37q42 -33 54.5 -48.5t20.5 -45.5q10 -34 10 -74q0 -55 -17.5 -97.5t-45.5 -49.5
q-6 -2 -10 -2q-9 0 -24.5 10.5t-59.5 45.5q-107 85 -196 137t-129 52q-2 0 0 -44q3 -148 -54 -177q-44 -22 -89 -22q-106 0 -106 129q0 9 2 33t-10 71.5t-16 73.5q-9 62 -17 244q-2 32 -2 59q0 154 26 250q5 51 27 85t48 48zM277 747q-3 -1 -4 -9.5t-1 -16.5l1 -8
q0 -1 -7 -81.5t-7 -122.5q0 -29 3 -42q1 -4 8 -4l13 3q24 2 53 10t67 24.5t62 28t71.5 35.5t62.5 31q17 9 15 28q0 3 -2.5 7t-5 6.5t-7.5 8t-8 8.5q-31 35 -132.5 65.5t-159.5 30.5q-12 0 -22 -2z" />
    <glyph glyph-name="S" unicode="S" horiz-adv-x="774" 
d="M572 997q22 3 42 3q79 0 105 -52q25 -50 25 -114q0 -58 -19.5 -102t-47.5 -44q-15 0 -32 17l-13 13l-4 -9q-18 -51 -65 -46q-37 4 -92 -18t-80 -50q-12 -12 124 -20q80 -5 126 -15t75.5 -33.5t39.5 -59t10 -95.5q1 -125 -88.5 -194t-349.5 -145q-119 -33 -213 -33
q-31 0 -46 4q-28 7 -44.5 46.5t-16.5 88.5q0 64 27 106q11 16 23 21t46 8q64 4 139 15t96 19q14 5 -16 17l-39 12q-95 24 -134.5 79t-36.5 160q6 210 220 337q36 21 114.5 48.5t124.5 35.5z" />
    <glyph glyph-name="T" unicode="T" horiz-adv-x="953" 
d="M136 984q14 6 43 6q38 0 119 -4q66 -3 144 -3q66 0 109 1h114h44t33.5 -1.5t25 -1.5t18 -3t12.5 -3.5t8.5 -5.5t6 -6t5.5 -8t6 -10q4 -7 8 -8.5t20 -3.5q37 -3 51 -11t26 -33q16 -32 16 -63q0 -24 -7.5 -49.5t-20 -55.5t-16.5 -43q-23 -15 -67.5 -22.5t-188.5 -15.5
l-30 -1v-24q0 -56 -7 -115q-3 -24 -17 -187q-3 -45 -5 -67.5t-3.5 -41t-5 -31.5t-5 -19.5t-8 -27t-10.5 -33.5q-25 -83 -66 -83q-27 0 -48 42q-6 11 -7.5 12.5t-4.5 -1.5q-10 -9 -23 -9q-24 0 -44.5 33.5t-26.5 84.5q-2 24 -2 156q0 250 4 286l2 15l-16 -2
q-23 -2 -100.5 -4.5t-83.5 -1.5q-7 2 -19 12q-11 10 -28 9h-3q-17 0 -24 4q-26 11 -41 46.5t-15 78.5q0 71 34 109q11 13 16 24q15 34 36 45q12 5 22 17q7 11 20 18z" />
    <glyph glyph-name="U" unicode="U" horiz-adv-x="865" 
d="M202 966q-16 0 -38 -21q-5 -5 -16 -10t-15 -5q-13 0 -31 -26.5t-28 -59.5q-16 -51 -41 -190.5t-25 -230.5q0 -28 2 -40q17 -177 70.5 -257.5t157.5 -91.5q25 -4 53 -12q46 -11 95 -11h1h11h1q5 0 15.5 -0.5t16.5 -0.5h1q68 0 146 15t107 38q5 1 13 5t30 23t40.5 46.5
t38 82.5t29.5 125q16 120 16 212q0 29 -2 77t-2 70q0 8 4.5 62.5t4.5 84.5q0 60 -16 71q-11 7 -16 20q-3 6 -5 12t-2.5 9.5t-3 7t-7.5 6.5q-4 3 -14.5 0l-24.5 -7t-22 -4h-1q-23 0 -31 -5q-1 0 -1 1q-3 2 -11.5 14.5t-12.5 13.5q-24 0 -43.5 -29t-29.5 -81q0 -4 -8.5 -24.5
t-17 -57.5t-11.5 -82q-2 -34 -4.5 -62t-5 -54t-4 -41.5t-4.5 -38t-4 -30.5t-5 -31t-5 -27t-6 -31.5t-6 -32.5q-8 -10 -13 -27t-9 -26.5t-25.5 -17t-62.5 -7.5q-33 0 -55 11.5t-30.5 23.5t-20 37.5t-17.5 35.5q-4 7 -4 21q0 4 15 107t17 220v52q0 68 -7 98t-28 50
q-15 18 -42 19q-5 0 -13 -12.5t-16 -15.5q-7 6 -10 17.5t-12 11.5z" />
    <glyph glyph-name="V" unicode="V" horiz-adv-x="880" 
d="M264 56q-263 76 -256 642q1 73 11.5 119t19 59t29.5 38q7 10 18 23q2 3 6.5 4.5t10.5 2.5t7 2q7 4 18 4q29 0 55 -32.5t31 -86.5q2 -28 14 -101q17 -94 25 -214l5 -83l12 -15q2 -2 6.5 -8t6 -7.5t5.5 -6t5.5 -6t5.5 -4.5t6.5 -3.5t6.5 -2t8.5 -2t9.5 -0.5h15q35 4 71 50
q14 18 86 125q27 40 45 69.5t29 47.5t20.5 38.5t13 29.5t12 33.5t13.5 37.5q23 64 77 122q13 16 31 16q26 0 46.5 -33.5t20.5 -82.5q1 -13 26.5 -18.5t26.5 -7.5q9 -18 9 -38q0 -19 -8 -45.5t-16.5 -44.5t-27.5 -57.5t-27 -55.5q-61 -130 -118.5 -213t-151.5 -174
q-131 -127 -216 -127q-22 0 -43 6z" />
    <glyph glyph-name="W" unicode="W" horiz-adv-x="1242" 
d="M1030 995q10 5 20 5q29 0 49 -37q5 -12 16 -23q8 -8 41.5 -34t55.5 -52t22 -52q0 -8 -1 -12q-33 -152 -95 -251q-16 -25 -69.5 -139t-104 -208.5t-73.5 -105.5q-12 -5 -29 -26q-9 -11 -29.5 -21t-37.5 -15t-43 -11t-31 -7q-2 0 -5.5 -0.5t-4.5 -0.5q-40 0 -73 81t-49 191
q-4 27 -5 30l-2 -4q-2 -4 -6.5 -12t-9.5 -18t-11.5 -23.5t-13.5 -26.5q-37 -75 -58.5 -109t-50.5 -65q-47 -49 -88 -49q-53 0 -102 82.5t-102 257.5q-32 104 -81 243q-36 98 -44 127.5t-6 65.5q2 62 23 99t52 35l13 -1l7 14q19 38 48 38q9 0 13 -2q9 -4 17 -4q7 0 16 4
q8 3 15 3q28 0 46 -42t21 -116q4 -65 6 -73q20 -92 43.5 -162.5t35.5 -70.5q22 0 96.5 102.5t124.5 203.5q36 73 76 73q34 0 61 -55q15 -32 32 -111.5t22 -143.5q2 -22 3 -22q3 -3 9 -3q31 0 84 101q66 124 110 266q13 43 22.5 61t24.5 25z" />
    <glyph glyph-name="X" unicode="X" horiz-adv-x="934" 
d="M196 996q-13 5 -33 -9.5t-29 -35.5q-5 -10 -7 -11t-11 0q-35 4 -59 -42t-24 -109q0 -50 18 -94q15 -37 135 -144q41 -37 41 -39l-25 -29q-110 -122 -145 -167.5t-42 -78.5q-7 -37 -7 -64q0 -64 23 -109t56 -41h6q6 0 14 -8q17 -18 35 -18q10 0 20 7q42 25 170 142
q56 53 100 91l45 38l70 -71q74 -74 102 -107q31 -35 44 -40t29 -20q21 -21 40 -21q20 0 37 22q5 6 8 6t10 -3t16 -3q31 -1 52.5 44t21.5 104q0 60 -23 106q-9 18 -26 36t-82 78q-53 49 -54 50l-9 9l76 65q15 15 45.5 36t45.5 39.5t18 47.5q3 34 9 44q19 25 19 62
q0 63 -47.5 126t-95.5 63q-20 0 -38 -15q-8 -8 -39 -30q-23 -16 -96 -71q-60 -45 -112 -81l-46 -32l-7 8q-5 8 -73 80q-103 107 -130 148q-15 22 -23 29t-23 12z" />
    <glyph glyph-name="Y" unicode="Y" horiz-adv-x="884" 
d="M114 991q20 9 45 9q45 0 71 -37q16 -19 53 -74q20 -31 40 -56t34 -40t28 -27t21.5 -17t14.5 -9l7 -4q14 -9 25 -6q52 9 268 242q23 26 46 26q35 0 60 -52q49 -102 49 -156t-35 -90q-6 -6 -17.5 -16t-20 -17t-8.5 -8q0 -10 -29 -34t-91.5 -68.5t-83.5 -60.5l-21 -17
l-2 -163q-1 -158 -6 -175q-15 -72 -48 -85q-10 -4 -17 -17q-19 -39 -48 -39q-26 0 -42 32l-4 8l-14 -14q-16 -14 -34 -14q-23 0 -43.5 19.5t-28.5 52.5q-14 52 -14 124q0 28 2 42q3 28 5 149l-10 106l-27 28q-11 12 -45.5 46t-55 55.5t-47 51.5t-42 55t-19.5 45
q-22 56 -22 96q0 84 106 109z" />
    <glyph glyph-name="Z" unicode="Z" horiz-adv-x="908" 
d="M142 990q12 5 244 5q334 0 369 -6q71 -13 99.5 -38t39.5 -84q4 -23 4 -50q0 -130 -121 -188q-12 -5 -18 -23q-33 -82 -151 -152q-39 -24 -74 -55t-41 -35q-13 -9 -30.5 -22t-29.5 -23t-11 -10h2h4.5h7.5t9.5 0.5t11.5 1t14 1t15 0.5t16.5 1t17.5 1q148 9 273 9
q33 0 39 -1q32 -5 50 -45.5t18 -92.5q0 -49 -16.5 -87t-45.5 -47q-10 -3 -106 -3q-73 0 -317 -10q-92 -3 -230 -24q-58 -8 -87 -8q-20 0 -30 3q-26 10 -43 50t-17 89q0 44 15 80q29 74 124 186.5t239 223.5l51 40l-16 2q-9 2 -72 2q-205 0 -235 -8q-16 -2 -21 -2
q-38 0 -60.5 36.5t-21.5 99.5q0 63 21.5 97.5t59.5 34.5q1 0 7 13q16 31 43 38z" />
    <glyph glyph-name="bracketleft" unicode="[" horiz-adv-x="528" 
d="M393 995q27 5 41 5q50 0 69 -52q17 -42 17 -94q0 -57 -20.5 -96.5t-51.5 -35.5q-10 -2 -23 -3.5t-26 -5t-42 -14.5q-47 -17 -54.5 -21t-8.5 -11q0 -3 -22 -119q-12 -62 -26 -164t-12 -105q1 -1 56 -1q124 0 144 -10q24 -13 37.5 -50.5t13.5 -83.5q0 -87 -38 -122
q-13 -12 -37 -12q-5 0 -41 2q-54 2 -101 2q-53 0 -93.5 5.5t-77 18.5t-58.5 38.5t-28 62.5q-3 13 -3 39q0 79 18 229t42 272q12 57 16 96q9 74 14 87q18 54 58 75q56 27 237 68z" />
    <glyph glyph-name="backslash" unicode="\" horiz-adv-x="504" 
d="M182 995q-10 5 -21 5q-27 0 -44 -21q-7 -8 -17 -8q-2 0 -12 2q-6 3 -13 3q-27 0 -47 -40.5t-20 -94.5q0 -23 2 -35q6 -43 33 -89q28 -48 66 -166q95 -296 143.5 -415.5t77.5 -133.5q8 -2 13 -2q16 0 32 11t21 26q2 6 4 6q4 0 9 -4q10 -5 19 -5q25 0 45 34.5t22 86.5
q1 15 1 40q0 57 -27 112q-26 50 -63 147t-56 168q-9 32 -19.5 72.5t-15.5 57t-12.5 40t-16 41.5t-20.5 40q-58 105 -84 122z" />
    <glyph glyph-name="bracketright" unicode="]" horiz-adv-x="516" 
d="M148 1000h-1q-70 0 -87 -14q-25 -20 -38.5 -61t-13.5 -86q0 -48 14 -80.5t40 -32.5q1 0 4 1t5 1q5 1 21 1h1q2 0 80 -6q92 -8 88 -38q-2 -20 -2 -48q0 -81 11 -213q8 -102 8 -135q0 -13 -1 -14h-1q-4 0 -22 1.5t-42 4t-30 3.5q-44 4 -69 4q-15 0 -23 -2
q-30 -9 -50.5 -57.5t-20.5 -103.5q0 -57 22 -89q14 -20 53 -21q7 0 57 -4q15 -1 49.5 -4t65.5 -5t57 -2h1q80 0 118 21q39 44 52.5 81t13.5 92q0 16 -2 68q-3 54 -3 82q-1 32 -6 97q-14 181 -14 230q0 7 0.5 22t0.5 24q3 137 -38 189t-175 81q-62 13 -123 13z" />
    <glyph glyph-name="asciicircum" unicode="^" horiz-adv-x="468" 
d="M180 995q12 5 20 5q22 0 51.5 -26.5t90.5 -98.5q37 -44 51 -54q32 -25 49.5 -71t17.5 -97q0 -93 -47 -137q-16 -16 -31 -16q-20 0 -48.5 25t-81.5 88q-44 50 -45 50q-1 1 -12.5 -17.5t-28.5 -48.5q-29 -53 -42 -68.5t-30 -17.5q-36 -4 -61 42.5t-25 113.5q0 29 4 53
q11 58 72.5 159.5t95.5 115.5z" />
    <glyph glyph-name="underscore" unicode="_" horiz-adv-x="704" 
d="M638 3q-8 -3 -36 -3q-32 0 -57 1q-18 0 -79 1t-139 2q-214 2 -221 3q-2 0 -5.5 1t-9.5 2t-10 2q-73 12 -73 143q-1 70 19 107.5t57 37.5q8 0 12 -1q21 -3 226 -5q102 -1 221 -3l95 -2l10 -6q48 -33 48 -137q0 -51 -15.5 -92t-42.5 -51z" />
    <glyph glyph-name="a" unicode="a" horiz-adv-x="908" 
d="M463 973h-1q-33 -2 -60 -10q-66 -21 -120.5 -76.5t-124.5 -172.5q-4 -13 -36 -83t-38 -85q-85 -215 -85 -316q0 -67 30 -141q17 -42 68 -42q44 1 80 32.5t33 77.5q0 16 31 80l9 16l5 -19q11 -42 24 -57.5t42 -15.5h1q24 0 66 9q37 7 76.5 16.5t58 12.5t39.5 3h1
q18 0 45 -3q8 -1 16 -1t12 -1t8.5 -0.5t6.5 -2t4 -3.5t3.5 -8t2.5 -11.5t3 -16.5q2 -14 6.5 -24t5.5 -15q16 -88 87 -89h1q3 1 9.5 1t9.5 1q40 6 72 36t34 56q2 20 2 45q0 64 -10 136q-1 7 -17 129q-17 146 -83.5 276t-150.5 201q-77 63 -166 65zM509 664h1q19 -2 29 -8
q26 -13 56.5 -70.5t43.5 -111.5l3 -12l-85 -5q-172 -4 -271 -32q-2 -1 -5 -1t-2 5q7 20 45 78t72 92q65 65 113 65z" />
    <glyph glyph-name="b" unicode="b" horiz-adv-x="926" 
d="M317 995q54 6 113 6q144 0 255.5 -44t148.5 -144q18 -50 18 -97q0 -102 -67 -196q-5 -7 -2 -7l9 -2q10 -2 21 -4.5t14 -5.5q55 -26 73 -72.5t18 -123.5q0 -64 -11.5 -105.5t-42 -69.5t-69.5 -44t-108 -34q-69 -17 -297 -35.5t-249 -15.5q-8 1 -25.5 2t-29 2t-14.5 2
q-26 11 -45 55.5t-19 89.5q0 44 20 65l8 9l39 17q-5 47 -6 56q-9 73 -16 243q-1 16 -2 38t-1.5 32.5t-0.5 12.5q-1 4 -3 54q-5 60 -7 85q-10 78 -9 111q2 45 17.5 72.5t36.5 27.5q14 0 27 -14l10 -11l27 7q25 21 169 38zM390 773q-17 3 -53 3q-4 1 -10 1q-15 0 -19 -6
q-3 -4 -5.5 -17.5t-2.5 -24.5l-1 -11q0 -1 -6 -113v-9q0 -18 6 -22q7 -5 32 -5q10 0 26 2l147 29q151 50 151 56q0 2 -21 18t-35 25q-38 25 -101.5 47t-107.5 27zM308 416q-5 -2 -8 -6t-4.5 -11.5t-1.5 -13.5t-0.5 -20t-1.5 -24q-2 -44 -2 -65q0 -45 8 -57q5 -8 23 -8
q10 0 28.5 3t24.5 3q94 11 226 37q79 15 97 36q6 6 1 10q-30 28 -161 74.5t-199 46.5q-18 0 -30 -5z" />
    <glyph glyph-name="c" unicode="c" horiz-adv-x="800" 
d="M422 965q32 5 54 5q104 0 179.5 -69.5t94.5 -185.5q4 -23 4 -49q0 -64 -24.5 -107.5t-56.5 -43.5q-40 0 -63 72q-10 31 -50 49.5t-90 18.5q-51 0 -93 -19q-72 -34 -137 -108.5t-75 -133.5q-2 -15 15.5 -26t50 -16.5t75.5 -5.5q62 0 140 14q43 7 134.5 33.5t113.5 37.5
q12 5 20 5q32 0 55 -48t23 -111q0 -47 -14 -86q-14 -41 -30 -52.5t-92 -35.5q-227 -73 -358 -73q-179 0 -250 140q-40 78 -40 216q0 76 15 142q37 163 151.5 288t247.5 149z" />
    <glyph glyph-name="d" unicode="d" horiz-adv-x="863" 
d="M247 999q7 3 15 3q21 0 43 -29l5 -6l17 7q47 18 110 18q76 0 177 -30q23 -7 65 -34t87.5 -77t58.5 -101q30 -78 30 -155q0 -158 -120.5 -293.5t-335.5 -226.5q-68 -29 -163 -52.5t-112 -19.5q-38 9 -69 73.5t-31 124.5q0 55 31 71l8 3l-51 53q-1 15 -2 56t-1 56
q-1 17 -1 50q0 106 12 166q21 103 49 167q9 20 11 41q3 19 15 37t26 30.5t36 25.5t35.5 19t33.5 14t21 9zM540 702q-14 2 -39 6t-45 6.5t-38 2.5q-26 0 -43 -5q-22 -5 -43 -18t-22 -21q-6 -32 -8 -96q-4 -68 -10 -130q-3 -49 -4 -63q-2 -43 -3 -48v-15q7 0 52 14t68 25
q103 51 162.5 110t111.5 151q8 13 8 16q0 4 -17 15q-63 42 -130 50z" />
    <glyph glyph-name="e" unicode="e" horiz-adv-x="857" 
d="M640 998q16 2 28 2q44 0 86.5 -15t63.5 -43q31 -41 31 -112q0 -55 -19.5 -97t-49.5 -42q-6 0 -10 1q-8 3 -67 9.5t-96 6.5q-25 0 -33 -3l-8 -4l8 -4q35 -11 76.5 -68t41.5 -106q0 -11 -3 -23q-11 -37 -33.5 -62t-64.5 -48q-18 -10 -116 -44t-115 -44l-30 -18l11 -1
q2 0 56 -1t114.5 -2t74.5 -2q60 -4 73 -7t23 -18q32 -44 32 -117q0 -50 -16.5 -89t-43.5 -46q-3 -1 -10 -1q-2 0 -99 6q-138 9 -219.5 15.5t-145.5 17.5t-91.5 17.5t-46.5 26.5t-21.5 33t-6.5 48q-2 16 -3 25q-3 24 -3 45q0 63 30 112t99 101l16 12l-8 14q-25 50 -25 113
q0 61 23 107q10 19 58.5 62t110.5 87q88 62 177.5 105t150.5 51z" />
    <glyph glyph-name="f" unicode="f" horiz-adv-x="811" 
d="M589 1000h-2q-136 0 -276 -20q-99 -14 -153 -51t-107 -114q-39 -60 -39 -152q0 -60 19 -105l4 -9q-27 -153 -27 -258q0 -50 9 -77q11 -37 10 -50q-1 -7 -1 -20q0 -47 17 -82t44 -44q6 -2 10 -2h1q17 0 25 14l5 5l1 -1q1 -2 2 -3q18 -31 58 -31q18 0 31 11q6 6 9 8
q29 23 29 76q0 24 -2 39q-3 26 -3 43q1 18 9.5 29t12.5 35q8 42 9 53l1 13h8q40 4 91 4q10 1 31 1h1q43 0 89 -1q76 -2 89 -2h2q43 0 56 3.5t23 15.5q35 44 35 119q0 29 -9 55q-12 35 -32 50q-5 5 -19 5h-31q-23 0 -38 2q-21 2 -63 2h-43q-48 0 -76 6q-78 19 -80 22
q-2 4 -2 8q0 23 26 66l6 9t5 8t5 6.5t7 6t8.5 4t12 3.5t15.5 2q25 3 35 3h1q3 0 29 -2q27 -3 48 -3h19q8 1 20 1h1q1 0 37 -2q27 -1 45 -5q12 -2 15 -2h1q5 0 15 4q4 2 10 4q12 1 25 13.5t15 26.5l1 1q2 0 6 -4q14 -11 28 -11q22 0 36 28t14 71q0 22 -5 50q-6 34 -16.5 52.5
t-33.5 37.5q-32 26 -92 32q-25 3 -67 3z" />
    <glyph glyph-name="g" unicode="g" horiz-adv-x="863" 
d="M510 984q32 3 60 3q82 0 126 -23q31 -7 68 -36.5t47 -55.5q13 -36 13 -83q0 -60 -19 -106.5t-47 -46.5q-13 0 -23 8t-27 31q-19 24 -39 30.5t-56 6.5q-28 0 -45 1q-86 3 -161.5 -47.5t-132.5 -133.5q-26 -39 -39 -87.5t-9 -64.5q3 -14 37 -44.5t68 -47.5q42 -20 103 -20
q96 0 197 43q19 9 19 11t-16 5q-44 10 -85 10q-30 0 -69 -6q-18 -2 -25 -2q-17 0 -26.5 8t-20.5 30q-15 33 -15 73q0 49 18.5 93.5t44.5 57.5q34 16 88 16q16 0 24 -1q287 -25 287 -268q0 -114 -50.5 -176.5t-173.5 -108.5q-105 -40 -234 -40q-86 0 -157.5 20t-109.5 57
q-122 117 -122 328q0 159 74 307q53 105 175 176t253 83z" />
    <glyph glyph-name="h" unicode="h" horiz-adv-x="853" 
d="M176 1000q-48 0 -69 -15t-38 -65q-10 -31 -18.5 -98.5t-9.5 -118.5q0 -15 -18 -139q-15 -102 -15 -158l5 -85l1 -69q-1 -97 18 -149t52 -55h5q10 0 19 4l11 3l5 -5q19 -23 40 -26h4q41 1 73 65t32 151v10.5v10.5t0.5 9t2 9.5t4 7t6.5 6.5q31 22 151 22h1q87 0 97 -16
q7 -10 8 -15t0 -24v-33q0 -25 1 -38t2.5 -16t5 -7.5t5.5 -12.5q4 -17 11 -27q6 -11 6 -19q0 -6 -0.5 -17t-0.5 -15q0 -56 37 -60h6q10 0 21 3l10 2l28 -7q11 -11 26 -13h4q28 0 59 35t45 88q17 67 17 139q0 31 -1 48q-1 52 5 115q6 58 7 118q1 32 4 128.5t3 97.5q1 11 1 31
q0 70 -26 124l-11 25q-12 26 -28 33q-6 3 -14 3l-1 1h-2q-22 0 -45 -30q-3 -5 -5 -5h-1l-6 2q-4 1 -21 2.5t-19 1.5h-5q-41 0 -66 -60q-20 -43 -38 -156q-5 -35 -12 -49t-21 -28q-17 -16 -56 -16h-3h-5h-2q-81 0 -108 -3h-2q-5 0 -11 4t-11 46.5t-4 75.5q1 5 1 21
q0 17 -1 24q-2 36 -2 47q0 112 -61 117h-2q-6 0 -8 -4.5t-3 -12.5t-3 -12l-5 -3l-6 7q-21 43 -51 45h-5z" />
    <glyph glyph-name="i" unicode="i" horiz-adv-x="390" 
d="M49 430q-3 -18 -6.5 -59t-6.5 -53q-4 -21 -16 -82q-2 -10 -2 -37q0 -25 -2 -34q-8 -35 -8 -54q0 -28 16 -57q21 -41 45 -41q13 0 21 14l8 12l6 -9q13 -14 44 -14q32 0 61 15.5t35 41.5q5 18 9 27q11 26 19 116q3 27 22 85q53 159 53 312q0 21 -1 29q12 25 24 101t12 128
q0 43 -21 75t-71 36q-6 1 -17.5 -13t-15.5 -14q-5 0 -10 15t-6 15q-12 2 -15 2q-6 0 -18 -3q-21 -4 -35 -22q-7 -12 -19 -18q-13 -8 -26.5 -51t-25.5 -109.5t-21 -128t-18.5 -131.5t-13.5 -94z" />
    <glyph glyph-name="j" unicode="j" horiz-adv-x="872" 
d="M441 3q-139 -2 -223.5 25.5t-124.5 78t-62 137.5q-23 89 -23 129q0 30 9 59q18 54 71 108.5t97 59.5q17 -1 27 -3t17 -9.5t9.5 -12t9 -21.5t11.5 -27q12 -28 27 -67.5t23 -60.5t23 -41t34 -30q2 -2 11 -2q29 0 75 36q14 11 22.5 30.5t16 51.5t8.5 36q3 11 19.5 183
t16.5 185q0 61 32.5 104t69.5 43q11 0 22 -6q34 8 51 10q7 1 19.5 1t22 0.5t11.5 1.5q50 -4 75.5 -43.5t25.5 -99.5v-20q-1 -8 -3.5 -55.5t-5 -89t-6.5 -91t-8 -76.5q-1 -6 -35 -154t-38 -164q-18 -71 -35.5 -101.5t-67.5 -57.5q-29 -16 -85 -27.5t-98 -15.5z" />
    <glyph glyph-name="k" unicode="k" horiz-adv-x="837" 
d="M816 723q-21 -33 -67.5 -72.5t-90 -71t-49.5 -37.5l-47 -42q5 -2 73.5 -53t92.5 -71q35 -31 45.5 -42.5t18.5 -30.5q16 -36 16 -91q0 -49 -13 -81q-2 -3 -6 -25q-6 -44 -26.5 -75t-43.5 -31h-1q-5 0 -8 1q-10 3 -46 29t-62 49q-34 31 -138 109t-129 108q-41 50 -43 50h-1
q0 -8 3 -36q2 -20 2 -55q0 -84 -32 -126q-6 -11 -9 -24q-9 -38 -28 -59.5t-39 -21.5q-28 0 -47 38l-7 14l-5 -8q-19 -31 -45 -31h-1q-29 0 -48 39q-13 27 -16.5 61t-3.5 139q0 129 -3 167q-2 30 -2 40q0 2 -0.5 16.5t-0.5 23.5q-1 15 -1 104v136q-1 88 4 121t22 62
q21 38 50 38h1q14 0 24 -10l6 -4l12 13q15 14 22 15q8 2 12 2q15 0 29 -13q4 -4 7 -4h4q4 2 11 2q27 0 46 -38.5t19 -95.5q0 -3 -2 -81l-4 -91l67 61q17 16 92 61t95 64q55 50 77 67t36 17q1 0 21 7t31 7t17 -6q34 -19 78 -76.5t44 -109.5q0 -26 -13 -48z" />
    <glyph glyph-name="l" unicode="l" horiz-adv-x="821" 
d="M305 980q53 -1 76 -29t23 -82q0 -23 -3 -50q-6 -47 -43.5 -179.5t-80.5 -258.5q-30 -92 -30 -94q0 -4 39 4q11 2 156 44.5t203 42.5q10 0 28 -2q37 1 77 -9q37 -10 50 -46.5t13 -93.5q0 -30 -2 -76q-4 -115 -66 -115q-6 0 -18 2q-89 20 -221 20q-138 0 -248 -24
q-67 -14 -102 -14q-43 0 -63 20q-85 81 -85 229q0 113 48 258q16 48 31 106.5t23 97t17.5 88t11.5 57.5q8 37 56 70t110 34z" />
    <glyph glyph-name="m" unicode="m" horiz-adv-x="983" 
d="M372 997q9 3 17 3q32 0 57 -51q31 -64 65 -172q15 -48 28 -105.5t18 -91.5l5 -34q40 58 162 251q107 169 165 169q5 0 13 -2q73 -21 73 -219q0 -56 -8 -138q-1 -7 -2 -19t-2 -19.5t-1 -11.5q-9 -110 -9 -280q0 -46 2 -52q8 -19 10 -58q3 -66 -17.5 -113t-53.5 -48
q-10 0 -17 -3q-3 -1 -11 -1q-20 0 -35 15q-9 9 -23 35t-19 43q-1 3 -6 13q-25 48 -21 116l1 18l-6 -6q-1 -1 -4.5 -5t-9 -10t-9.5 -11q-29 -31 -67 -62q-68 -56 -114 -56q-57 0 -112 81q-12 18 -42 78.5t-35 77.5l-3 8q-4 0 -98 -183q-9 -19 -19.5 -39.5t-18 -34.5t-7.5 -15
l-11 -22q-20 -42 -50 -42q-17 0 -31 14l-7 8l-10 -9q-14 -14 -30 -14q-28 0 -49.5 42t-21.5 103q0 42 13 85.5t58 151.5q22 53 58 172q49 158 120.5 293.5t114.5 149.5z" />
    <glyph glyph-name="n" unicode="n" horiz-adv-x="885" 
d="M706 999q3 1 9 1q32 0 51 -32q2 -3 3 -3q2 0 9 4q10 6 22 6q33 0 55 -46t22 -111q0 -41 -10 -80q-1 -5 -5.5 -25.5t-6.5 -29.5q-25 -134 -64 -248q-7 -19 -23 -90q-35 -161 -79 -233t-109 -72q-20 0 -41 6q-58 15 -97 72.5t-99 216.5q-4 10 -7.5 19.5t-6.5 17t-5.5 13.5
t-3.5 9l-2 2q-1 -1 -5 -17q-68 -324 -128 -335q-5 -1 -11 -9q2 -12 2 -15q0 -20 -23 -20q-19 0 -58 10q-19 4 -31.5 9t-19.5 8t-12 11.5t-6.5 11.5t-5 17.5t-4.5 19.5q-8 32 -8 90q0 131 29 294q6 34 13 79t11 67q14 95 34 155q9 24 19 68q11 48 45 78t67 30q12 0 22 -5
q6 -4 13 -2q3 2 12 2q28 0 47 -27q29 -40 119 -239q9 -20 17 -37.5t15.5 -33t14 -29t12 -24.5l9.5 -19t7.5 -13.5t5 -8.5t2.5 -2q5 5 40 139q47 179 80.5 260.5t63.5 89.5z" />
    <glyph glyph-name="o" unicode="o" horiz-adv-x="901" 
d="M433 952h33h39q202 -3 295 -90.5t93 -276.5q0 -33 -3 -69q-7 -89 -33.5 -152t-79.5 -117q-93 -95 -213.5 -147t-235.5 -52q-86 0 -155.5 31t-108.5 91q-56 85 -56 219q0 109 38.5 216t108.5 179q27 28 31.5 34.5t6.5 19.5q7 31 22.5 54t33.5 28q80 24 184 32zM584 656
q-42 4 -92 4q-100 0 -103 -8q-5 -17 -21 -32.5t-32 -18.5q-56 -12 -110 -70.5t-67 -119.5l-4 -16l11 -9q52 -46 166 -46q48 0 103 11q100 21 207.5 98t107.5 125q0 11 -7 18q-43 48 -159 64z" />
    <glyph glyph-name="p" unicode="p" horiz-adv-x="889" 
d="M246 997q7 3 14 3q27 0 47 -40q5 -8 12 -17q7 -5 20 -29q8 1 17 2q106 18 196 18q18 0 25 -1q151 -11 226 -63.5t78 -173.5q1 -76 -13.5 -126.5t-38 -80.5t-74.5 -77q-15 -14 -31 -26t-40.5 -25t-40 -20.5t-52.5 -22t-54.5 -21t-70.5 -25t-77 -27.5q-74 -27 -106 -42
l-7 -3l-31 -94q-16 -52 -33 -69q-18 -37 -75 -37q-30 0 -55.5 13t-34.5 36q-4 13 -9 19q-30 40 -30 123q0 63 18 150q5 24 15 119q3 29 8 74t6 51l4 31l-4 4q-28 32 -28 107q0 55 13 87t47 51l10 6l58 21q16 41 43.5 68.5t47.5 36.5zM540 703q-37 9 -102 9q-46 0 -103 -5
l-12 -2l-2 -12q0 -3 -2 -40t-3 -48q-2 -11 -5 -64t-4 -59l-5 -25q1 -1 35.5 8t82 25t74.5 29q9 4 39 18t46 22.5t38 22t34.5 27t16.5 28.5q1 4 1 11q0 13 -8.5 22.5t-24.5 14.5t-30.5 8t-35.5 5.5t-30 4.5z" />
    <glyph glyph-name="q" unicode="q" horiz-adv-x="1063" 
d="M349 999q8 1 38 1q111 0 157 -7q224 -35 324 -139t100 -289q0 -28 -1 -43q0 -7 -1.5 -35t-2 -36.5t-2.5 -33t-4.5 -36.5t-7.5 -34t-10.5 -38t-14.5 -36t-20 -39l-7 -13l21 -18q29 -26 54.5 -44.5t36 -25t18 -16.5t12.5 -27q16 -25 16 -63q0 -64 -36.5 -124.5t-70.5 -51.5
q-79 20 -115 53q-145 130 -151 132q-3 0 -20 -12q-124 -81 -263 -81q-167 0 -277 112q-55 56 -84.5 145.5t-29.5 192.5q0 150 58 279l8 19l-5 18q-8 29 -8 61q0 42 11.5 81.5t30.5 58.5q23 22 105.5 52t140.5 37zM510 693q-27 4 -74 4h-38l-7 -15q-9 -19 -20 -29t-37 -23
q-121 -61 -161 -173q-13 -36 -13 -64q0 -47 49 -86q80 -57 204 -61l47 -1l-6 5q-7 7 -53 37q-53 36 -68.5 61.5t-22.5 83.5q-2 20 -2 28q0 59 23 105t53 46q6 0 9 -1q14 -4 122.5 -81t176.5 -132l39 -31l14 16q19 22 30.5 48t22 60.5t14.5 46.5q7 19 -30 48
q-60 49 -119.5 74t-152.5 34z" />
    <glyph glyph-name="r" unicode="r" horiz-adv-x="862" 
d="M381 998q24 2 37 2q107 0 212.5 -53t175.5 -143q48 -59 48 -153q0 -46 -13 -88q-17 -54 -61 -87t-162 -81q-20 -11 -20 -13q1 0 16 -8.5t39.5 -20.5t50.5 -22q16 -6 28.5 -13.5t21.5 -13t16.5 -15.5t11.5 -14.5t8.5 -18l5.5 -16.5t5 -19.5t5 -19.5q7 -28 7 -61
q0 -53 -18 -93t-44 -40q-8 0 -15 4l-5 5l-12.5 10t-17 12.5t-21.5 13.5t-23 11q-56 22 -98 44.5t-63 31.5q-54 25 -113 58t-88.5 51t-30.5 16q-1 -1 -3 -65q0 -55 -4 -83q-7 -47 -33.5 -76t-55.5 -29q-19 0 -33 13q-10 11 -12 7q-21 -31 -44 -31t-41 33q-22 38 -22 110
q0 30 4 54q3 20 5 83q0 16 1 59t2 59q1 17 -8 59.5t-9 57.5q0 61 -1.5 148.5t-1.5 114.5q0 87 8.5 122t35.5 34l10 -1l4 11q16 40 84 40q31 0 58.5 -10.5t37.5 -28.5l2 -2q2 0 9 7q45 40 124 48zM468 723q-5 1 -42 7.5t-57 8.5q-47 7 -68 7q-28 0 -32 -14l-2 -18v-100
l-3 -142l10 2q70 8 137 35.5t109.5 60t68 61t25.5 41.5q0 14 -53.5 30t-92.5 21z" />
    <glyph glyph-name="s" unicode="s" horiz-adv-x="749" 
d="M545 999q6 1 18 1q63 0 109 -33t60 -89q9 -35 9 -68q0 -58 -21.5 -100t-51.5 -42q-15 0 -32 14q-28 23 -40 26q-30 8 -63 8q-8 0 -22 -2q-68 -8 -149 -31q-22 -7 -20 -9q19 -5 41 -10q111 -26 176 -56t103 -77q27 -33 42.5 -90.5t15.5 -117.5q0 -90 -34 -135
q-23 -31 -61 -51.5t-141 -58.5q-17 -6 -57.5 -18t-46.5 -15q-8 -3 -24 -9.5t-21 -8.5q-2 -1 -96.5 -4t-127.5 -19q-8 -4 -16 -4q-9 0 -16.5 6t-17 18.5t-14.5 17.5q-39 40 -39 128q0 84 38 125q7 8 55.5 20t117 28.5t108.5 31.5q1 1 4 2l3 1l-81 19q-45 10 -75 18.5
t-51.5 20.5t-33 21t-19.5 27.5t-10.5 31.5t-7.5 41l-3 18q-5 33 -5 59q0 161 153 255q57 35 173 70.5t171 39.5z" />
    <glyph glyph-name="t" unicode="t" horiz-adv-x="958" 
d="M458 978q76 2 96 2q82 0 96 -12l7 -7l85 -2q67 -2 100 -5t56.5 -14t31.5 -26t15 -47q5 -20 5 -48q0 -48 -19.5 -83t-52.5 -43l-15 -4q-1 -1 -6 -11q-12 -23 -24.5 -29t-60.5 -6q-7 0 -28.5 0.5t-36.5 0.5q-25 0 -52.5 0.5t-41.5 1t-17 0.5h-11l-4 -21q-7 -33 -13 -187
q-6 -167 -15 -251.5t-19 -112.5t-31 -46q-9 -8 -22 -8q-17 0 -32.5 12t-22.5 31q-3 7 -4.5 7.5t-5.5 -3.5q-12 -13 -29 -13q-26 0 -51.5 26t-34.5 66q-11 47 -11 150q0 117 14 203q14 70 16 124l2 28l-24 2q-6 0 -40 1.5t-54 2.5q-37 1 -59 5t-28 7.5t-11.5 9.5t-9.5 8
q-6 3 -18.5 16t-16.5 20q-4 10 -12 13q-19 12 -30 45t-11 72q0 71 30 104q10 11 25.5 14t83.5 5q19 1 61 -1.5t68 -2.5q21 0 32 1q30 1 66 2t57.5 2t26.5 1z" />
    <glyph glyph-name="u" unicode="u" horiz-adv-x="901" 
d="M761 978q15 12 19 12q2 0 4.5 -3.5t5.5 -5.5t4.5 -11.5t3.5 -10.5q4 -1 9 -1q10 0 14.5 7.5t7.5 6.5q28 -8 40 -37t18 -81q6 -55 6 -115q0 -218 -75 -445q-12 -35 -22 -87q-61 -170 -220 -197q-195 0 -301.5 11.5t-154.5 43.5q-95 95 -103 173q-9 94 -9 136q0 15 1 19
q0 1 3 44.5t6.5 95t8.5 102.5t9 68q15 62 36 123.5t37 95.5t21 36q2 1 7 1q12 0 11 -19h1q14 6 31 19.5t25 15.5q4 2 23 2q16 0 51 -3q3 0 24 -12.5t24 -12.5l9 11q8 11 9 11q7 -1 14 -8q15 -13 27 -39q3 -8 3 -26q0 -53 -23.5 -166.5t-38.5 -152.5q-3 -24 -8 -59.5
t-7.5 -60t-2.5 -41.5q0 -27 20 -69q16 -32 31 -42.5t46 -12.5q7 -1 20 -1q28 0 45.5 9t43.5 31q16 14 27.5 56t15.5 77l3 35q3 21 3.5 90.5t5.5 114.5q20 190 77 249q2 2 7 -6t11.5 -14.5t10.5 -3.5q8 7 25 16t35.5 18t20.5 10z" />
    <glyph glyph-name="v" unicode="v" horiz-adv-x="874" 
d="M718 944q9 6 21 6q21 0 33 -17l5 -7l7 6q8 7 19 7q18 0 34.5 -20.5t23.5 -52.5q5 -19 5 -48q0 -64 -39.5 -151.5t-131.5 -225.5q-36 -54 -75 -114q-48 -78 -96 -136.5t-79 -77.5l-9 -6t-14.5 -9.5t-14.5 -9.5q-61 -38 -122 -38q-125 0 -202 147q-34 66 -54.5 164
t-20.5 197q0 24 1 36q6 140 26.5 224.5t48.5 84.5q3 0 12 7q19 16 41 16q40 0 71 -45.5t31 -121.5q0 -36 -5 -94.5t-5 -81.5q0 -55 18 -88q36 -34 74 -34q44 0 103 44q76 58 118.5 115.5t89.5 169.5q59 139 86 154z" />
    <glyph glyph-name="w" unicode="w" horiz-adv-x="1243" 
d="M174 996q8 4 18 4q29 0 52 -35t28 -89q1 -10 7 -22t15 -57q8 -48 22.5 -115t20.5 -104q7 -57 10 -66q1 -4 8 8q9 15 37 67q72 137 116.5 196.5t88.5 79.5q10 5 24 5q53 0 83 -104q11 -32 14 -37q21 -41 25 -131l2 -46l23 39q19 36 75 118q66 104 74 117l29 50
q18 28 46 28q3 0 11 -2l12 -4l40 29q57 56 82 56q15 0 34 -19q64 -66 64 -134q0 -73 -62 -177q-13 -32 -35.5 -70t-49 -95.5t-59.5 -156.5q-19 -57 -48 -106.5t-45.5 -70t-54 -58l-38.5 -38.5q-44 -47 -95 -47q-55 0 -96 53q-26 35 -50.5 99.5t-31.5 115.5q-3 24 -4 24
q-2 0 -7 -10q-145 -262 -220 -285l-20 -6l-19 6q-42 13 -84.5 58.5t-70.5 136.5q-137 449 -137 628q0 18 1.5 31.5t5.5 23.5t6.5 16t10.5 11.5t10.5 7t14 6t13.5 5.5q12 5 21 22q4 8 16 16t23 12.5t26.5 9.5t17.5 6z" />
    <glyph glyph-name="x" unicode="x" horiz-adv-x="929" 
d="M787 1000h-1q-6 0 -18 -5q-9 -7 -42 -45q-8 -9 -32.5 -42t-43 -55t-63.5 -66t-105 -93l-19 -16l-20 21q-4 4 -27 32t-37 42q-48 50 -80 82q-27 28 -53.5 59.5t-38.5 45t-27 23t-33 9.5q-3 0 -8 -0.5t-7 -0.5q-17 -2 -34 -24t-25 -51q-6 -17 -14 -26q-34 -42 -34 -135
q0 -67 20 -97q7 -11 53 -65t73 -81l24 -24l-24 -24q-86 -87 -124.5 -159t-38.5 -140q0 -21 2 -31q5 -46 22 -71.5t41 -25.5q13 0 27 8q12 7 14 7h1l1 -2q1 -3 3 -7l4 -8q17 -35 45 -35h6q10 1 69.5 54t106.5 102q33 35 62 58l33 25q1 1 3 1q16 0 77.5 -48t117.5 -109
q19 -21 29 -37t12 -21l1 -5q2 3 10 8l11 7l9 -7q13 -8 28 -8h1q52 1 112 64t60 125q0 21 -7 36q-3 7 -52.5 62.5t-97.5 106.5l-48 52q57 55 105 93q49 39 77 89.5t28 96.5q0 43 -25 69q-1 1 -8.5 7.5t-16 14.5t-17.5 17.5t-15 18t-6 12.5q-10 116 -46 116z" />
    <glyph glyph-name="y" unicode="y" horiz-adv-x="932" 
d="M778 999q-2 0 -5 0.5t-4 0.5q-7 0 -18 -3q-23 -9 -43.5 -28t-118.5 -121q-24 -25 -57.5 -64t-52.5 -58t-36 -23q-23 5 -45.5 34t-47.5 73t-42 64q-17 19 -38.5 48.5t-37.5 43.5q-12 12 -45 26q-32 9 -47 7h-10q-32 0 -76 -48q-46 -51 -46 -102q0 -70 86 -141q7 -6 36 -44
q25 -35 64 -79.5t63 -62.5q4 -8 15.5 -21.5t17.5 -27t6 -34.5q-1 -79 -4.5 -155t-3.5 -112q0 -6 0.5 -21t0.5 -23q15 -68 30 -98t37 -30q7 0 11 2q3 -2 10 -2q20 0 49 23l7 5q24 -21 50 -21q7 0 10 1q3 -1 10 -1q46 0 78.5 63t32.5 177q0 36 -5 89q-4 42 -4 49q0 30 24 72
q10 17 27 37.5t23 31.5q20 34 53 71q15 15 40.5 44t37.5 42q13 14 26 27t18.5 18t11 11.5t10.5 14.5q1 1 6.5 8.5t7 9.5t6.5 9t6.5 9.5t5.5 9t5.5 10t4 10t3.5 11t2 10.5t1 12q0 66 -109 138q-14 9 -26 9q-1 0 -5 -0.5t-6 -0.5z" />
    <glyph glyph-name="z" unicode="z" horiz-adv-x="873" 
d="M295 995h-8q-89 0 -132.5 -1t-69 -10t-30.5 -15t-17 -28q-27 -48 -27 -124q0 -64 20 -113.5t49 -48.5q13 0 26 10q11 10 24.5 12t74.5 2h5h53q212 -2 212 -5l-5 -3q-6 -3 -15.5 -9.5t-22.5 -15t-32.5 -23t-39.5 -30.5q-220 -176 -286 -251t-66 -153q0 -20 1 -30
q6 -79 35.5 -105t122.5 -26h2q35 0 85 3q134 7 217 7h2q53 0 153 -5l111 -7l12 -9q13 -12 28 -12h1q33 1 60 55t27 119q0 47 -18 86q-10 22 -21.5 31.5t-35.5 17.5q-82 21 -234 21h-3h-53q-11 -1 -30 -1h-2l-16 1l11 7q11 8 34 24.5t45 34.5q80 64 122 105t72 82l29 42
q63 75 63 187q0 56 -19 101q-18 44 -65.5 59t-169.5 16q-236 2 -279 2z" />
    <glyph glyph-name="braceleft" unicode="{" horiz-adv-x="698" 
d="M500 994q25 6 49 6q64 0 98.5 -42t34.5 -120q1 -62 -19.5 -103t-49.5 -41q-13 0 -29 11l-12 10l-31 -2q-47 -1 -99 -23q-56 -21 -56 -33q0 -8 14 -17q56 -38 56 -140q0 -10 -2 -30q-4 -40 -19.5 -73t-32.5 -37l-6 -2l5 -7q19 -26 26 -57l3 -14h24q16 0 98 4l75 4l11 -6
q25 -12 38.5 -50t13.5 -86q0 -49 -14.5 -89t-40.5 -51q-15 -6 -110 -6q-199 0 -242 12q-70 20 -78 134l-1 21l-21 15q-11 8 -32.5 29t-41.5 30q-38 16 -53.5 27.5t-27.5 34.5q-20 42 -20 100q0 75 30 121q49 73 122 93l24 7v23q0 24 -4 35q-13 36 -13 85q0 95 42 134
q22 21 117.5 49t173.5 44z" />
    <glyph glyph-name="bar" unicode="|" horiz-adv-x="332" 
d="M192 998q8 2 12 2q16 0 32 -14t23 -35q5 -14 15 -16q50 -14 50 -145q0 -120 -44 -372q-37 -209 -41.5 -236.5t-4.5 -53.5q0 -56 -20 -92t-45 -36q-33 0 -49 58q-1 4 -2.5 8.5t-2.5 7t-1 3.5t-1 1t-11 -5q-13 -10 -26 -10q-30 0 -49 50t-19 131q0 15 2 51q9 143 36 258
q8 36 21 136t14 147q6 142 61 142q4 0 12 -2q2 0 4 -0.5t3 -0.5q4 0 13 9q10 10 18 14z" />
    <glyph glyph-name="braceright" unicode="}" horiz-adv-x="666" 
d="M74 999q4 1 9 1q12 -6 174 -8q113 -1 155.5 -8t58.5 -38q22 -47 22 -110q0 -20 -1 -30q-1 -5 -2 -12l-2 -14t-1 -9l-1 -12l16 -4q77 -21 100.5 -33.5t37.5 -40.5q18 -37 18 -102q-1 -74 -22.5 -109.5t-89.5 -76.5l-48 -29v-122q0 -121 -4 -141q-11 -45 -26 -66.5
t-40 -28.5q-20 -6 -124 -6q-180 0 -210 11q-26 9 -41.5 50.5t-15.5 92.5q0 69 27 113q11 18 23.5 24.5t35.5 6.5q7 0 31 -2q62 -5 103 -5q37 0 37 4q-2 5 -4 13q0 5 -12 31q-22 44 -22 107q0 50 15 87l6 16l-5 15q-15 39 -15 91v43l-53 2q-108 3 -133 11q-30 8 -46.5 49
t-16.5 94q0 54 17.5 96t48.5 49z" />
    <glyph glyph-name="quoteleft" unicode="&#x2018;" horiz-adv-x="362" 
d="M228 523q-12 -3 -30 -3q-44 0 -92.5 14t-63.5 37q-15 21 -24.5 67t-9.5 92q0 26 2 39q9 76 42.5 125t86.5 85q32 21 99 21q32 0 42 -8q21 -20 21 -63q0 -28 -10 -48q-7 -14 -14 -18t-25 -6q-36 -1 -57 -34q-10 -15 -9 -15t4 1q5 1 18 1q43 0 66 -14q14 -10 32.5 -29
t21.5 -32q3 -6 6 -9q20 -26 20 -62q0 -38 -20 -75q-4 -7 -14 -18t-16 -15q-5 -2 -14 -9q-19 -15 -62 -24z" />
    <glyph glyph-name="quoteright" unicode="&#x2019;" horiz-adv-x="328" 
d="M119 997q14 3 29 3q39 0 80.5 -14t56.5 -36t25 -71.5t10 -97.5q0 -15 -2 -39q-20 -160 -109 -220q-33 -22 -99 -22q-32 0 -42 8q-21 20 -21 70q0 31 10 51q7 14 14 18.5t24 5.5q21 1 32.5 8t25.5 27q10 13 8 14q-1 0 -4 -1q-4 -1 -17 -1q-45 0 -66 14q-26 18 -35 52l-1 2
q-1 1 -2 3l-2 4q-26 31 -26 86q0 40 15 70q4 8 14.5 19t16.5 14q3 1 14 10q23 17 51 23z" />
    <glyph glyph-name="quotesinglbase" unicode="&#x201a;" horiz-adv-x="328" 
d="M119 497q14 3 29 3q39 0 80.5 -14t56.5 -36t25 -71.5t10 -97.5q0 -15 -2 -39q-20 -160 -109 -220q-33 -22 -99 -22q-32 0 -42 8q-21 20 -21 70q0 31 10 51q7 14 14 18.5t24 5.5q21 1 32.5 8t25.5 27q10 13 8 14q-1 0 -4 -1q-4 -1 -17 -1q-45 0 -66 14q-26 18 -35 52l-1 2
q-1 1 -2 3l-2 4q-26 31 -26 86q0 40 15 70q4 8 14.5 19t16.5 14q3 1 14 10q23 17 51 23z" />
    <glyph glyph-name="quotedblleft" unicode="&#x201c;" horiz-adv-x="662" 
d="M509 508q-4 -1 -13 -1q-24 0 -52.5 9t-35.5 21q-1 4 -8 5q-21 7 -33.5 31.5t-12.5 58.5q0 19 2 29t2 15q0 6 -2 14q-3 10 -3 24q0 16 8 72q4 24 16.5 47.5t20 33t32.5 34t26 25.5q8 8 15.5 16.5t10.5 12.5t6.5 7t5.5 4t5 1q2 0 6 5t8.5 11t6.5 8q15 10 66 10q22 0 30 -2
q15 -4 26.5 -25t11.5 -45q0 -17 -6 -32q-3 -9 -3 -11q-7 -33 -31 -40q-22 -6 -48 -42l-9 -12l12 -1q51 -3 70 -40q14 -28 14 -66q0 -35 -11 -67.5t-29 -50.5l-21 -21q-24 -24 -83 -38zM136 510q-8 -2 -12 -2q-17 0 -35 9t-25 22q-2 3 -8 6q-22 7 -35 31.5t-13 58.5
q0 15 3 30l2 10q0 1 -2 9q-3 10 -3 25t8 73q13 86 66 142q41 42 54 41l7 3q7 4 18 9t25.5 10.5t34.5 9t40 3.5q8 0 24 -2q13 -4 21.5 -21.5t8.5 -40.5q0 -20 -8 -41l-4 -12q-2 -13 -37 -43t-42 -40l-9 -13h11q52 -3 71 -41q14 -27 14 -66q0 -73 -39 -110l-22 -22
q-8 -8 -25 -15t-29.5 -10t-35 -7.5t-24.5 -5.5z" />
    <glyph glyph-name="quotedblright" unicode="&#x201d;" horiz-adv-x="657" 
d="M503 1000q8 2 13 2q22 0 46.5 -9t31.5 -22q3 -3 8 -5q22 -7 34.5 -31.5t12.5 -57.5q0 -15 -3 -30q-1 -4 -1 -9t2 -10q2 -14 2 -23q0 -23 -7 -73q-18 -110 -76 -170q-40 -42 -53 -41h-2q-2 0 -9 -4q-17 -11 -79 -11q-29 0 -37 2q-13 4 -21.5 24t-8.5 45q0 24 8 43
q0 1 0.5 3t1 3.5l1 3t0.5 2.5q7 33 31 40q22 6 48 42l9 12l-12 1q-51 3 -70 40q-14 28 -14 64q0 72 40 110l21 21q24 24 83 38zM193 999q4 1 13 1q36 0 64.5 -27.5t36.5 -70.5q2 -5 2 -45q0 -31 -1 -35t0 -13q4 -30 -7 -73q-12 -48 -28 -89q-17 -45 -37 -71t-56 -48
q-34 -20 -74 -20q-31 0 -39 13q-4 6 -9 11q-21 20 -21 63q0 56 28 68q12 5 41 44q10 12 8 12l-8 2q-77 18 -93 83q-5 22 -5 40q0 68 45 92q3 1 15 11q3 3 8.5 8t6.5 6q8 4 16 12q16 14 94 26z" />
    <glyph glyph-name="quotedblbase" unicode="&#x201e;" horiz-adv-x="657" 
d="M503 494q8 2 13 2q22 0 46.5 -9t31.5 -22q3 -3 8 -5q22 -7 34.5 -31.5t12.5 -57.5q0 -15 -3 -30q-1 -4 -1 -9t2 -10q2 -14 2 -23q0 -23 -7 -73q-18 -110 -76 -170q-40 -42 -53 -41h-2q-2 0 -9 -4q-17 -11 -79 -11q-29 0 -37 2q-13 4 -21.5 24t-8.5 45q0 24 8 43
q0 1 0.5 3t1 3.5l1 3t0.5 2.5q7 33 31 40q22 6 48 42l9 12l-12 1q-51 3 -70 40q-14 28 -14 64q0 72 40 110l21 21q24 24 83 38zM193 493q4 1 13 1q36 0 64.5 -27.5t36.5 -70.5q2 -5 2 -45q0 -31 -1 -35t0 -13q4 -30 -7 -73q-12 -48 -28 -89q-17 -45 -37 -71t-56 -48
q-34 -20 -74 -20q-31 0 -39 13q-4 6 -9 11q-21 20 -21 63q0 56 28 68q12 5 41 44q10 12 8 12l-8 2q-77 18 -93 83q-5 22 -5 40q0 68 45 92q3 1 15 11q3 3 8.5 8t6.5 6q8 4 16 12q16 14 94 26z" />
    </font>
</defs>
</svg>
