<?xml version="1.0" standalone="no"?>
<!DOCTYPE svg PUBLIC "-//W3C//DTD SVG 1.1//EN" "http://www.w3.org/Graphics/SVG/1.1/DTD/svg11.dtd" >
<svg xmlns="http://www.w3.org/2000/svg" xmlns:xlink="http://www.w3.org/1999/xlink" version="1.1">
<metadata>
Created by FontForge 20170731 at Wed Nov  9 18:45:59 2016
 By Aleksey,,,
Copyright 2016 The Alfa Slab One Project Authors (http://www.jmsole.cl | info@jmsole.cl), with Reserved Font Name "Alfa Slab".
</metadata>
<defs>
<font id="AlfaSlabOne-Regular" horiz-adv-x="0" >
  <font-face 
    font-family="Alfa Slab One"
    font-weight="400"
    font-stretch="normal"
    units-per-em="1000"
    panose-1="0 0 5 0 0 0 0 0 0 0"
    ascent="800"
    descent="-200"
    x-height="556"
    cap-height="778"
    bbox="-319 -327 1590 1238"
    underline-thickness="50"
    underline-position="-150"
    unicode-range="U+000D-FB02"
  />
<missing-glyph horiz-adv-x="730" 
d="M90 0v778h550v-778h-550zM203 104h324v570h-324v-570z" />
    <glyph glyph-name="fi" unicode="fi" horiz-adv-x="730" 
d="M307 601q-15 -13 -15 -45h78v-164h-78v-228h78v-164h-352v164h44v228h-44v164h46q0 122 59.5 179t173.5 57q49 0 89 -6.5t64 -15.5v8h204v-167h-195v-2q-53 5 -98 5q-39 0 -54 -13zM676 164h44v-164h-318v164h44v228h-44v164h274v-392z" />
    <glyph glyph-name="fl" unicode="fl" horiz-adv-x="734" 
d="M720 164v-165h-318v165h44v446q-44 4 -85 4q-39 0 -54 -13t-15 -45h78v-164h-78v-228h78v-164h-352v164h44v228h-44v164h46q0 122 59.5 179t173.5 57q73 0 127 -14h252v-614h44z" />
    <glyph glyph-name="f_f" unicode="ff" horiz-adv-x="768" 
d="M691 601q-15 -13 -15 -45h78v-164h-78v-228h78v-164h-352v164h44v228h-44v164h46q0 29 3 54q-44 4 -90 4q-39 0 -54 -13t-15 -45h78v-164h-78v-228h78v-164h-352v164h44v228h-44v164h46q0 122 59.5 179t173.5 57q55 0 98.5 -8t63.5 -18v-118q40 144 222 144q55 0 98.5 -8
t63.5 -18v-157q-53 5 -98 5q-39 0 -54 -13z" />
    <glyph glyph-name="f_f_i" unicode="ffi" horiz-adv-x="1114" 
d="M691 601q-15 -13 -15 -45h78v-164h-78v-228h78v-164h-352v164h44v228h-44v164h46q0 29 3 54q-44 4 -90 4q-39 0 -54 -13t-15 -45h78v-164h-78v-228h78v-164h-352v164h44v228h-44v164h46q0 122 59.5 179t173.5 57q55 0 98.5 -8t63.5 -18v-118q40 144 222 144q49 0 89 -6.5
t64 -15.5v8h204v-167h-195v-2q-53 5 -98 5q-39 0 -54 -13zM1060 164h44v-164h-318v164h44v228h-44v164h274v-392z" />
    <glyph glyph-name="f_f_l" unicode="ffl" horiz-adv-x="1118" 
d="M1104 164v-165h-318v165h44v446q-44 4 -85 4q-39 0 -54 -13t-15 -45h78v-164h-78v-228h78v-164h-352v164h44v228h-44v164h46q0 29 3 54q-44 4 -90 4q-39 0 -54 -13t-15 -45h78v-164h-78v-228h78v-164h-352v164h44v228h-44v164h46q0 122 59.5 179t173.5 57q55 0 98.5 -8
t63.5 -18v-118q40 144 222 144q73 0 127 -14h252v-614h44z" />
    <glyph glyph-name=".notdef" horiz-adv-x="730" 
d="M90 0v778h550v-778h-550zM203 104h324v570h-324v-570z" />
    <glyph glyph-name=".null" 
 />
    <glyph glyph-name="nonmarkingreturn" unicode="&#xd;" horiz-adv-x="300" 
 />
    <glyph glyph-name="NULL" 
 />
    <glyph glyph-name="NULL" 
 />
    <glyph glyph-name="space" unicode=" " horiz-adv-x="300" 
 />
    <glyph glyph-name="exclam" unicode="!" horiz-adv-x="339" 
d="M66 219l-46 509v50h299v-50l-47 -509h-206zM56 0v164h226v-164h-226z" />
    <glyph glyph-name="quotedbl" unicode="&#x22;" horiz-adv-x="356" 
d="M203 548l-15 230h143l-15 -230h-113zM40 548l-15 230h143l-15 -230h-113z" />
    <glyph glyph-name="numbersign" unicode="#" horiz-adv-x="732" 
d="M113 0v22l21 171h-112l16 139h113l13 105h-122l16 139h124l25 202h142v-22l-23 -180h120l25 202h142v-22l-23 -180h120l-16 -139h-121l-13 -105h130l-16 -139h-131l-23 -193h-143v22l21 171h-119l-23 -193h-143zM296 332h119l13 105h-119z" />
    <glyph glyph-name="dollar" unicode="$" horiz-adv-x="684" 
d="M273 -12q-77 5 -144.5 20.5t-103.5 31.5v198h220q0 -32 13 -45.5t49 -13.5q32 0 46.5 10t14.5 30q0 14 -12.5 25.5t-45.5 23.5q-111 41 -171.5 75.5t-91.5 83t-31 124.5q0 103 60 163t197 74v115h131v-113q81 -5 147 -23.5t98 -38.5v-179h-210q0 50 -55 50
q-33 0 -47.5 -8.5t-14.5 -29.5q0 -16 13 -24t49 -19q94 -30 152.5 -60.5t95 -82t36.5 -132.5q0 -114 -67.5 -178t-196.5 -76v-121h-131v120z" />
    <glyph glyph-name="percent" unicode="%" horiz-adv-x="885" 
d="M30 586q0 106 42 154t121 48q164 0 164 -202q0 -97 -39 -148.5t-125 -51.5q-163 0 -163 200zM222 510v155q0 36 -29 36q-28 0 -28 -36v-155q0 -37 28 -37q29 0 29 37zM159 0v32l465 746h102v-32l-464 -746h-103zM528 190q0 106 42 154t121 48q164 0 164 -202
q0 -97 -39 -148.5t-125 -51.5q-163 0 -163 200zM720 114v155q0 36 -29 36q-28 0 -28 -36v-155q0 -37 28 -37q29 0 29 37z" />
    <glyph glyph-name="ampersand" unicode="&#x26;" horiz-adv-x="828" 
d="M102.5 45.5q-86.5 59.5 -86.5 164.5q0 70 42 121.5t105 77.5q-56 40 -84 82t-28 98q0 64 41 110t113.5 69.5t165.5 23.5q94 0 172 -23t116 -51v-192h-210v18q0 36 -17 53t-51 17q-63 0 -63 -49q0 -19 15.5 -36t49.5 -43l163 -123q4 21 4 48v18h241v-167h-58l-9 -33
l90 -68l-122 -161l-73 56q-100 -70 -269 -70q-161 0 -247.5 59.5zM456 182l-127 98q-19 -9 -30 -24.5t-11 -34.5q0 -30 22.5 -43.5t65.5 -13.5q49 0 80 18z" />
    <glyph glyph-name="quotesingle" unicode="'" horiz-adv-x="193" 
d="M40 548l-15 230h143l-15 -230h-113z" />
    <glyph glyph-name="parenleft" unicode="(" horiz-adv-x="374" 
d="M97 4q-61 149 -61 324t61 324t158 236l109 -50q-70 -102 -106 -231t-36 -279t36 -279t106 -231l-109 -50q-97 87 -158 236z" />
    <glyph glyph-name="parenright" unicode=")" horiz-adv-x="374" 
d="M10 -182q70 102 106 231t36 279t-36 279t-106 231l109 50q97 -87 158 -236t61 -324t-61 -324t-158 -236z" />
    <glyph glyph-name="asterisk" unicode="*" horiz-adv-x="409" 
d="M145 409v15l18 94l-75 -60l-12 -7l-60 100l11 9l100 33l-100 33l-11 7l60 103l12 -7l75 -62l-18 94v17h120v-17l-18 -94l74 62l11 7l61 -103l-12 -7l-101 -33l101 -33l12 -9l-61 -100l-11 7l-74 60l18 -94v-15h-120z" />
    <glyph glyph-name="plus" unicode="+" horiz-adv-x="576" 
d="M205 94v165h-165v167h165v165h167v-165h164v-167h-164v-165h-167z" />
    <glyph glyph-name="comma" unicode="," horiz-adv-x="245" 
d="M40 -161l52 161h-51v164h156v-164l-71 -161h-86z" />
    <glyph glyph-name="hyphen" unicode="-" horiz-adv-x="389" 
d="M34 199v164h321v-164h-321z" />
    <glyph glyph-name="period" unicode="." horiz-adv-x="244" 
d="M40 0v164h156v-164h-156z" />
    <glyph glyph-name="slash" unicode="/" horiz-adv-x="423" 
d="M-20 -151v32l321 961h142v-32l-320 -961h-143z" />
    <glyph glyph-name="zero" unicode="0" horiz-adv-x="732" 
d="M105.5 82q-91.5 96 -91.5 307t91.5 307t260.5 96t260.5 -96t91.5 -307q0 -195 -84.5 -299t-267.5 -104q-169 0 -260.5 96zM434 238v302q0 74 -68 74t-68 -74v-302q0 -74 68 -74t68 74z" />
    <glyph glyph-name="one" unicode="1" horiz-adv-x="522" 
d="M44 0v164h96v450h-126v113l222 51h168v-614h84v-164h-444z" />
    <glyph glyph-name="two" unicode="2" horiz-adv-x="649" 
d="M12 86q0 86 25.5 152t83.5 124.5t160 121.5q30 19 42.5 32.5t12.5 32.5q0 41 -59 41q-44 0 -101 -23t-103 -58l-59 213q64 32 147 54.5t167 22.5q138 0 214 -61t76 -173q0 -60 -26.5 -105.5t-64 -76.5t-97.5 -71q-67 -44 -98.5 -75.5t-31.5 -72.5h121v57h205v-221h-614
v86z" />
    <glyph glyph-name="three" unicode="3" horiz-adv-x="623" 
d="M545.5 364.5q28.5 -24.5 47 -61.5t18.5 -82q0 -110 -78.5 -172.5t-232.5 -62.5q-73 0 -146 16.5t-130 40.5v213q62 -27 128.5 -44t126.5 -17q42 0 61.5 13t19.5 43q0 58 -70 58h-72v164h56q66 0 66 56q0 54 -66 54q-48 0 -100 -22.5t-101 -58.5l-59 213q61 32 139 54.5
t157 22.5q138 0 212 -58t74 -164q0 -66 -31 -108.5t-79 -64.5q31 -8 59.5 -32.5z" />
    <glyph glyph-name="four" unicode="4" horiz-adv-x="694" 
d="M343 0v125h-325v164l345 489h244v-501h69v-152h-69v-125h-264zM203 277h140v197z" />
    <glyph glyph-name="five" unicode="5" horiz-adv-x="651" 
d="M578 448q59 -66 59 -179q0 -85 -38.5 -149t-114.5 -99t-184 -35q-73 0 -146 16.5t-130 40.5v213q130 -61 236 -61q55 0 82 22.5t27 70.5q0 35 -16 55t-51 20q-27 0 -43.5 -13.5t-26.5 -38.5h-210l43 467h532v-194h-332l-9 -103q63 33 151 33q112 0 171 -66z" />
    <glyph glyph-name="six" unicode="6" horiz-adv-x="693" 
d="M622.5 427q62.5 -64 62.5 -178q0 -127 -83.5 -195t-235.5 -68q-176 0 -262 95.5t-86 292.5q0 216 101.5 317t279.5 101q73 0 136 -12.5t101 -32.5v-202q-38 17 -87 27.5t-104 10.5q-143 0 -143 -106v-12q31 11 70 18.5t77 7.5q111 0 173.5 -64zM421 184.5
q17 20.5 17 64.5q0 40 -17.5 62.5t-53.5 22.5q-34 0 -65 -13v-80q0 -40 17 -58.5t51 -18.5t51 20.5z" />
    <glyph glyph-name="seven" unicode="7" horiz-adv-x="648" 
d="M159.5 197q37.5 108 94.5 209.5t115 177.5h-149v-92h-210v286h628v-152q-55 -82 -108.5 -191.5t-89 -225t-35.5 -209.5h-283q0 89 37.5 197z" />
    <glyph glyph-name="eight" unicode="8" horiz-adv-x="700" 
d="M649.5 337.5q40.5 -46.5 40.5 -122.5q0 -113 -86.5 -171t-253.5 -58t-253.5 56.5t-86.5 166.5q0 79 43.5 127t103.5 68q-53 19 -89 61.5t-36 109.5q0 107 80.5 162t237.5 55q156 0 236 -55t80 -162q0 -68 -32 -110t-81 -61q56 -20 96.5 -66.5zM282 544q0 -66 68 -66
t68 66q0 70 -68 70t-68 -70zM428 244q0 40 -20 61t-58 21t-58 -21t-20 -61q0 -80 78 -80t78 80z" />
    <glyph glyph-name="nine" unicode="9" horiz-adv-x="693" 
d="M590 696.5q87 -95.5 87 -292.5q0 -216 -101.5 -317t-279.5 -101q-73 0 -136 12.5t-101 32.5v202q38 -17 87 -27.5t104 -10.5q143 0 143 106v11q-64 -25 -138 -25q-116 0 -180.5 62.5t-64.5 174.5q0 133 82 200.5t233 67.5q178 0 265 -95.5zM274.5 466q17.5 -22 53.5 -22
q34 0 65 13v80q0 40 -17 58.5t-51 18.5t-51 -21t-17 -65q0 -40 17.5 -62z" />
    <glyph glyph-name="colon" unicode=":" horiz-adv-x="244" 
d="M40 325v164h156v-164h-156zM40 0v164h156v-164h-156z" />
    <glyph glyph-name="semicolon" unicode=";" horiz-adv-x="245" 
d="M41 325v164h156v-164h-156zM40 -161l52 161h-51v164h156v-164l-71 -161h-86z" />
    <glyph glyph-name="less" unicode="&#x3c;" horiz-adv-x="499" 
d="M434 69l-398 161v184l398 162h21v-156l-271 -92v-11l271 -93v-155h-21z" />
    <glyph glyph-name="equal" unicode="=" horiz-adv-x="495" 
d="M40 377v166h415v-166h-415zM40 132v167h415v-167h-415z" />
    <glyph glyph-name="greater" unicode="&#x3e;" horiz-adv-x="499" 
d="M44 69v155l271 93v11l-271 92v156h21l398 -162v-184l-398 -161h-21z" />
    <glyph glyph-name="question" unicode="?" horiz-adv-x="630" 
d="M153 265q0 45 16.5 78.5t39.5 54.5t59 46t53 43t17 43q0 40 -60 40q-47 0 -105 -18t-106 -41l-53 204q66 31 153 54t173 23q85 0 148.5 -25.5t97.5 -72.5t34 -109q0 -54 -17.5 -91t-42.5 -60.5t-66 -51.5q-34 -24 -54.5 -42t-34 -44t-13.5 -62v-15h-239v46zM153 0v164
h238v-164h-238z" />
    <glyph glyph-name="at" unicode="@" horiz-adv-x="1148" 
d="M148 -123q-116 113 -116 338q0 173 79 304t214.5 202t299.5 71q150 0 260 -52.5t168.5 -149.5t58.5 -227q0 -125 -42 -210t-109 -126t-141 -41q-73 0 -111.5 29.5t-49.5 73.5q-28 -40 -76.5 -71.5t-110.5 -31.5q-95 0 -145.5 66t-50.5 183q0 110 43.5 185.5t119 112.5
t171.5 37q61 0 129 -16.5t127 -43.5v-349q0 -11 6 -16.5t15 -5.5q16 0 30.5 24.5t23.5 70.5t9 107q0 151 -89.5 226t-256.5 75q-121 0 -214 -52t-144.5 -145.5t-51.5 -215.5q0 -164 81.5 -238.5t224.5 -74.5q65 0 119 7.5t80 16.5v-145q-35 -12 -94 -21.5t-121 -9.5
q-220 0 -336 113zM605 166q19 12 31 29v230q-26 7 -50 7q-30 0 -48 -24.5t-18 -59.5v-140q0 -54 46 -54q20 0 39 12z" />
    <glyph glyph-name="A" unicode="A" horiz-adv-x="806" 
d="M754 164h40v-164h-392v164h60l-16 80h-136l-16 -80h60v-164h-342v164h40l169 614h364zM332 350h92l-41 199h-10z" />
    <glyph glyph-name="B" unicode="B" horiz-adv-x="775" 
d="M20 164h50v450h-50v164h459q125 0 195 -51t70 -146q0 -59 -28 -99.5t-65.5 -61t-72.5 -27.5v-10q71 -7 128 -45t57 -136q0 -105 -79 -153.5t-205 -48.5h-459v164zM404 450q29 0 43.5 15.5t14.5 48.5v36q0 33 -14.5 48.5t-43.5 15.5h-54v-164h54zM411 164q29 0 43.5 15.5
t14.5 48.5v44q0 33 -14.5 48.5t-43.5 15.5h-61v-172h61z" />
    <glyph glyph-name="C" unicode="C" horiz-adv-x="722" 
d="M116.5 82q-102.5 96 -102.5 307q0 403 392 403q95 0 176.5 -23t121.5 -51v-250h-240v72q0 38 -17 56t-51 18t-51 -18t-17 -56v-302q0 -38 17 -56t51 -18t51 18t17 56v81h240v-259q-41 -28 -121.5 -51t-174.5 -23q-189 0 -291.5 96z" />
    <glyph glyph-name="D" unicode="D" horiz-adv-x="804" 
d="M20 164h50v449h-50v165h406q167 0 265.5 -91.5t98.5 -297.5t-98.5 -297.5t-265.5 -91.5h-406v164zM408 164q34 0 51 18t17 56v302q0 74 -68 74h-58v-450h58z" />
    <glyph glyph-name="E" unicode="E" horiz-adv-x="713" 
d="M20 0v164h50v450h-50v164h675v-302h-224v138h-121v-158h88v-114h-88v-178h121v158h224v-322h-675z" />
    <glyph glyph-name="F" unicode="F" horiz-adv-x="632" 
d="M20 0v164h50v450h-50v164h598v-259h-177v95h-91v-166h151v-114h-151v-170h131v-164h-461z" />
    <glyph glyph-name="G" unicode="G" horiz-adv-x="782" 
d="M774 250h-50v-200q-44 -25 -128.5 -44.5t-182.5 -19.5q-187 0 -293 98.5t-106 304.5q0 211 105.5 307t301.5 96q95 0 178 -20t125 -45v-239h-250v47q0 42 -17.5 60.5t-55.5 18.5t-55.5 -18.5t-17.5 -60.5v-292q0 -42 17.5 -60.5t55.5 -18.5t55.5 18.5t17.5 60.5v7h-54
v149h354v-149z" />
    <glyph glyph-name="H" unicode="H" horiz-adv-x="840" 
d="M820 614h-50v-450h50v-164h-378v164h48v165h-140v-165h48v-164h-378v164h50v450h-50v164h378v-164h-48v-152h140v152h-48v164h378v-164z" />
    <glyph glyph-name="I" unicode="I" horiz-adv-x="420" 
d="M20 0v164h50v450h-50v164h380v-164h-50v-450h50v-164h-380z" />
    <glyph glyph-name="J" unicode="J" horiz-adv-x="666" 
d="M127 3.5q-69 17.5 -115 48.5v176h200v-10q0 -54 52 -54q27 0 40.5 14.5t13.5 45.5v390h-90v164h420v-164h-50v-336q0 -147 -86 -219.5t-239 -72.5q-77 0 -146 17.5z" />
    <glyph glyph-name="K" unicode="K" horiz-adv-x="835" 
d="M769 164h50v-164h-273l-150 310l-46 -38v-108h48v-164h-378v164h50v450h-50v164h378v-164h-48v-132l155 132h-63v164h372v-164h-50l-167 -138z" />
    <glyph glyph-name="L" unicode="L" horiz-adv-x="653" 
d="M20 0v164h50v450h-50v164h422v-164h-92v-450h90v92h199v-256h-619z" />
    <glyph glyph-name="M" unicode="M" horiz-adv-x="1143" 
d="M1123 614h-50v-450h50v-164h-378v164h48v350l-170 -514h-148l-175 509v-345h48v-164h-328v164h50v450h-50v164h458l104 -312l100 312h441v-164z" />
    <glyph glyph-name="N" unicode="N" horiz-adv-x="942" 
d="M596 778h328v-164h-50v-614h-281l-293 451v-287h48v-164h-328v164h50v450h-50v164h361l263 -401v237h-48v164z" />
    <glyph glyph-name="O" unicode="O" horiz-adv-x="792" 
d="M113.5 82q-99.5 96 -99.5 307t99.5 307t282.5 96t282.5 -96t99.5 -307t-99.5 -307t-282.5 -96t-282.5 96zM447 182q17 18 17 56v302q0 38 -17 56t-51 18t-51 -18t-17 -56v-302q0 -39 17 -56.5t51 -17.5t51 18z" />
    <glyph glyph-name="P" unicode="P" horiz-adv-x="738" 
d="M20 164h50v450h-50v164h439q129 0 197 -55.5t68 -179.5t-68 -179.5t-197 -55.5h-109v-144h96v-164h-426v164zM384 450q58 0 58 64v36q0 33 -14.5 48.5t-43.5 15.5h-34v-164h34z" />
    <glyph glyph-name="Q" unicode="Q" horiz-adv-x="810" 
d="M454.5 -65q-127.5 13 -219.5 55.5t-154 127.5q-67 97 -67 271q0 203 100.5 303t281.5 100q180 0 281 -88.5t101 -264.5q0 -76 -24.5 -142.5t-84.5 -122.5l5 -10h120v-242q-212 0 -339.5 13zM464 238v302q0 74 -68 74t-68 -74v-302q0 -74 68 -74t68 74z" />
    <glyph glyph-name="R" unicode="R" horiz-adv-x="800" 
d="M20 164h50v450h-50v164h459q129 0 197 -53t68 -172q0 -67 -27 -116t-77 -68l1 -10q96 -15 96 -118v-77h47v-164h-317v235q0 39 -11.5 59t-36 27t-69.5 7v-164h66v-164h-396v164zM404 450q29 0 43.5 15.5t14.5 48.5v36q0 33 -14.5 48.5t-43.5 15.5h-54v-164h54z" />
    <glyph glyph-name="S" unicode="S" horiz-adv-x="674" 
d="M148.5 2.5q-85.5 16.5 -131.5 37.5v198h220q0 -31 14 -45t51 -14q31 0 44.5 9.5t13.5 28.5q0 16 -13 27.5t-45 23.5l-86 30q-111 42 -159.5 99t-48.5 154q0 118 77.5 179.5t258.5 61.5q87 0 163.5 -17.5t123.5 -46.5v-179h-200q0 50 -62 50q-30 0 -42.5 -7.5t-12.5 -26.5
q0 -17 14.5 -27t47.5 -21l87 -30q106 -36 154.5 -93.5t48.5 -150.5q0 -127 -85.5 -192t-250.5 -65q-96 0 -181.5 16.5z" />
    <glyph glyph-name="T" unicode="T" horiz-adv-x="780" 
d="M766 536h-172v78h-64v-450h70v-164h-420v164h70v450h-64v-78h-172v242h752v-242z" />
    <glyph glyph-name="U" unicode="U" horiz-adv-x="781" 
d="M151.5 55q-85.5 69 -85.5 224v335h-50v164h370v-164h-40v-386q0 -33 14.5 -48.5t43.5 -15.5t43.5 15.5t14.5 48.5v386h-40v164h343v-164h-50v-335q0 -155 -83 -224t-238 -69q-157 0 -242.5 69z" />
    <glyph glyph-name="V" unicode="V" horiz-adv-x="786" 
d="M440 778h334v-164h-40l-179 -614h-324l-179 614h-40v164h384v-164h-52l69 -335h10l69 335h-52v164z" />
    <glyph glyph-name="W" unicode="W" horiz-adv-x="1207" 
d="M875 778h320v-164h-40l-149 -614h-299l-91 432h-10l-96 -432h-299l-159 614h-40v164h370v-164h-38l39 -255h10l95 419h288l88 -419h10l39 255h-38v164z" />
    <glyph glyph-name="X" unicode="X" horiz-adv-x="800" 
d="M744 164h42v-164h-378v164h41l-58 82h-10l-58 -82h41v-164h-350v164h52l192 216l-200 234h-42v164h375v-164h-38l55 -82h10l55 82h-38v164h347v-164h-52l-189 -213z" />
    <glyph glyph-name="Y" unicode="Y" horiz-adv-x="776" 
d="M457 778h307v-164h-40l-193 -346v-104h50v-164h-380v164h50v104l-199 346h-40v164h387v-164h-35l59 -155h10l59 155h-35v164z" />
    <glyph glyph-name="Z" unicode="Z" horiz-adv-x="689" 
d="M476 246h199v-246h-661v144l308 470h-104v-82h-199v246h640v-144l-307 -470h124v82z" />
    <glyph glyph-name="bracketleft" unicode="[" horiz-adv-x="325" 
d="M311 -286l-267 23v1136l267 23l12 -129l-111 -23v-878l111 -23z" />
    <glyph glyph-name="backslash" unicode="\" horiz-adv-x="424" 
d="M300 -151l-320 961v32h143l321 -961v-32h-144z" />
    <glyph glyph-name="bracketright" unicode="]" horiz-adv-x="325" 
d="M14 -286l-12 129l111 23v878l-111 23l12 129l267 -23v-1136z" />
    <glyph glyph-name="asciicircum" unicode="^" horiz-adv-x="413" 
d="M14 522v15l117 241h151l117 -241v-15h-126l-62 142h-9l-62 -142h-126z" />
    <glyph glyph-name="underscore" unicode="_" horiz-adv-x="600" 
d="M0 -166v94h600v-94h-600z" />
    <glyph glyph-name="grave" unicode="`" horiz-adv-x="403" 
d="M203 611l-163 140v27h214l109 -152v-15h-160z" />
    <glyph glyph-name="a" unicode="a" horiz-adv-x="615" 
d="M601 164v-164h-264v68q-22 -32 -61.5 -57t-96.5 -25q-75 0 -118 40t-43 113q0 189 321 194q-3 34 -26 46.5t-78 12.5q-45 0 -96.5 -9.5t-94.5 -25.5v184q53 13 115 21t121 8q149 0 213 -54t64 -167v-185h44zM337 234q-45 0 -69.5 -12t-24.5 -40q0 -17 10.5 -27.5
t29.5 -10.5q26 0 40 22t14 62v6z" />
    <glyph glyph-name="b" unicode="b" horiz-adv-x="662" 
d="M356.5 11q-39.5 25 -64.5 57v-68h-274v164h44v450h-44v164h274v-290q25 32 64.5 57t90.5 25q102 0 153.5 -76t51.5 -216t-51.5 -216t-153.5 -76q-51 0 -90.5 25zM393.5 179.5q14.5 15.5 14.5 48.5v100q0 33 -14.5 48.5t-43.5 15.5t-43.5 -15.5t-14.5 -48.5v-100
q0 -33 14.5 -48.5t43.5 -15.5t43.5 15.5z" />
    <glyph glyph-name="c" unicode="c" horiz-adv-x="562" 
d="M94 60.5q-80 74.5 -80 217.5t80 217.5t222 74.5q69 0 132 -19t98 -43v-198h-172v18q0 33 -14 48.5t-44 15.5q-58 0 -58 -64v-86q0 -78 89 -78q83 0 193 18v-157q-34 -15 -95.5 -27t-127.5 -12q-143 0 -223 74.5z" />
    <glyph glyph-name="d" unicode="d" horiz-adv-x="658" 
d="M61.5 62q-51.5 76 -51.5 216t51.5 216t153.5 76q51 0 90.5 -25t64.5 -57v126h-59v164h289v-614h44v-164h-274v68q-25 -32 -64.5 -57t-90.5 -25q-102 0 -153.5 76zM355.5 179.5q14.5 15.5 14.5 48.5v100q0 33 -14.5 48.5t-43.5 15.5t-43.5 -15.5t-14.5 -48.5v-100
q0 -33 14.5 -48.5t43.5 -15.5t43.5 15.5z" />
    <glyph glyph-name="e" unicode="e" horiz-adv-x="594" 
d="M94 60.5q-80 74.5 -80 217.5t80 217.5t222 74.5q141 0 203.5 -73.5t62.5 -182.5v-72h-324v-6q0 -37 22 -54.5t73 -17.5q61 0 116 9t96 23v-160q-35 -19 -102.5 -34.5t-146.5 -15.5q-142 0 -222 74.5zM374 352v12q0 34 -14.5 49t-43.5 15t-43.5 -15.5t-14.5 -48.5v-12h116
z" />
    <glyph glyph-name="f" unicode="f" horiz-adv-x="384" 
d="M18 164h44v228h-44v164h46q0 122 59.5 179t173.5 57q55 0 98.5 -8t63.5 -18v-157q-53 5 -98 5q-39 0 -54 -13t-15 -45h78v-164h-78v-228h78v-164h-352v164z" />
    <glyph glyph-name="g" unicode="g" horiz-adv-x="654" 
d="M173.5 -226q-65.5 10 -101.5 23v164q106 -19 190 -19q57 0 82.5 17.5t25.5 65.5v43q-25 -32 -64.5 -57t-90.5 -25q-102 0 -153.5 76t-51.5 216t51.5 216t153.5 76q51 0 90.5 -25t64.5 -57v68h274v-164h-44v-352q0 -145 -72 -210.5t-217 -65.5q-72 0 -137.5 10z
M355.5 179.5q14.5 15.5 14.5 48.5v100q0 33 -14.5 48.5t-43.5 15.5t-43.5 -15.5t-14.5 -48.5v-100q0 -33 14.5 -48.5t43.5 -15.5t43.5 15.5z" />
    <glyph glyph-name="h" unicode="h" horiz-adv-x="696" 
d="M682 164v-164h-316v164h42v164q0 33 -14 48.5t-42 15.5q-60 0 -60 -64v-164h42v-164h-316v164h44v450h-44v164h274v-300q37 46 80 69t100 23q83 0 124.5 -52t41.5 -143v-211h44z" />
    <glyph glyph-name="i" unicode="i" horiz-adv-x="346" 
d="M66 611v167h204v-167h-204zM18 0v164h44v228h-44v164h274v-392h44v-164h-318z" />
    <glyph glyph-name="j" unicode="j" horiz-adv-x="313" 
d="M61 611v167h204v-167h-204zM-30.5 -229q-43.5 7 -73.5 15v163q47 -7 84 -7q77 0 77 72v378h-67v164h297v-522q0 -137 -58 -203.5t-175 -66.5q-41 0 -84.5 7z" />
    <glyph glyph-name="k" unicode="k" horiz-adv-x="678" 
d="M621 164h43v-164h-245l-103 192h-24v-192h-274v164h44v450h-44v164h274v-406h24l124 184h211v-164h-41l-85 -95z" />
    <glyph glyph-name="l" unicode="l" horiz-adv-x="350" 
d="M18 -1v165h44v450h-44v164h274v-614h44v-165h-318z" />
    <glyph glyph-name="m" unicode="m" horiz-adv-x="1042" 
d="M1028 164v-164h-316v164h42v164q0 33 -14 48.5t-42 15.5q-60 0 -60 -64v-164h42v-164h-314v164h42v164q0 33 -14 48.5t-42 15.5q-60 0 -60 -64v-164h42v-164h-316v164h44v228h-44v164h274v-78q72 92 180 92q61 0 99.5 -28.5t54.5 -80.5q36 52 82.5 80t109.5 28
q83 0 124.5 -52t41.5 -143v-210h44z" />
    <glyph glyph-name="n" unicode="n" horiz-adv-x="696" 
d="M682 164v-164h-316v164h42v164q0 33 -14 48.5t-42 15.5q-60 0 -60 -64v-164h42v-164h-316v164h44v228h-44v164h274v-78q72 92 180 92q83 0 124.5 -52t41.5 -143v-211h44z" />
    <glyph glyph-name="o" unicode="o" horiz-adv-x="632" 
d="M94 60.5q-80 74.5 -80 217.5t80 217.5t222 74.5q144 0 223 -75.5t79 -216.5q0 -143 -80 -217.5t-222 -74.5t-222 74.5zM359.5 179.5q14.5 15.5 14.5 48.5v100q0 33 -14.5 48.5t-43.5 15.5t-43.5 -15.5t-14.5 -48.5v-100q0 -33 14.5 -48.5t43.5 -15.5t43.5 15.5z" />
    <glyph glyph-name="p" unicode="p" horiz-adv-x="658" 
d="M14 -58h44v450h-44v164h274v-68q25 32 64.5 57t90.5 25q102 0 153.5 -76t51.5 -216t-51.5 -216t-153.5 -76q-51 0 -90.5 25t-64.5 57v-126h69v-164h-343v164zM389.5 179.5q14.5 15.5 14.5 48.5v100q0 33 -14.5 48.5t-43.5 15.5t-43.5 -15.5t-14.5 -48.5v-100
q0 -33 14.5 -48.5t43.5 -15.5t43.5 15.5z" />
    <glyph glyph-name="q" unicode="q" horiz-adv-x="652" 
d="M301 -58h69v126q-25 -32 -64.5 -57t-90.5 -25q-102 0 -153.5 76t-51.5 216t51.5 216t153.5 76q51 0 90.5 -25t64.5 -57v68h274v-164h-44v-614h-299v164zM355.5 179.5q14.5 15.5 14.5 48.5v100q0 33 -14.5 48.5t-43.5 15.5t-43.5 -15.5t-14.5 -48.5v-100q0 -33 14.5 -48.5
t43.5 -15.5t43.5 15.5z" />
    <glyph glyph-name="r" unicode="r" horiz-adv-x="527" 
d="M483 566q18 -4 30 -10v-191q-41 17 -88 17q-63 0 -97 -33t-34 -98v-87h90v-164h-364v164h44v228h-44v164h274v-73q28 42 64 64.5t87 22.5q20 0 38 -4z" />
    <glyph glyph-name="s" unicode="s" horiz-adv-x="519" 
d="M18 26v148h162v-10q0 -48 61 -48q54 0 54 37q0 20 -15.5 30t-54.5 17l-50 9q-157 28 -157 178q0 87 66 135t178 48q125 0 211 -42v-139h-152v10q0 20 -13.5 30.5t-39.5 10.5q-50 0 -50 -32q0 -17 14 -26t51 -17l57 -11q89 -17 127 -63t38 -118q0 -91 -63.5 -139
t-180.5 -48q-126 0 -243 40z" />
    <glyph glyph-name="t" unicode="t" horiz-adv-x="451" 
d="M105.5 37.5q-53.5 51.5 -53.5 173.5v181h-44v164q38 0 57 19.5t19 53.5v45h212v-118h135v-164h-135v-164q0 -33 14.5 -48.5t43.5 -15.5q38 0 83 9v-157q-28 -11 -75.5 -20.5t-96.5 -9.5q-106 0 -159.5 51.5z" />
    <glyph glyph-name="u" unicode="u" horiz-adv-x="686" 
d="M676 164v-164h-274v78q-72 -92 -180 -92q-83 0 -124.5 52t-41.5 143v211h-44v164h274v-328q0 -33 14.5 -48.5t43.5 -15.5t43.5 15.5t14.5 48.5v164h-54v164h284v-392h44z" />
    <glyph glyph-name="v" unicode="v" horiz-adv-x="651" 
d="M178 0l-126 392h-42v164h309v-164h-42l53 -198h10l53 198h-42v164h290v-164h-42l-123 -392h-298z" />
    <glyph glyph-name="w" unicode="w" horiz-adv-x="956" 
d="M184 0l-132 392h-42v164h309v-164h-42l36 -156h10l73 320h184l73 -320h10l35 156h-42v164h290v-164h-42l-127 -392h-243l-55 278h-10l-55 -278h-230z" />
    <glyph glyph-name="x" unicode="x" horiz-adv-x="636" 
d="M592 164h32v-164h-312v164h28l-39 59h-10l-39 -59h28v-164h-268v164h42l121 108l-127 120h-32v164h312v-164h-28l39 -58h10l39 58h-28v164h260v-164h-42l-115 -106z" />
    <glyph glyph-name="y" unicode="y" horiz-adv-x="632" 
d="M620 556v-164h-38l-131 -347q-49 -131 -112 -196.5t-166 -65.5q-42 0 -85 8.5t-78 23.5v181h138v-10q0 -25 26 -25q23 0 35 22l-158 409h-38v164h297v-164h-34l52 -156l48 156h-34v164h278z" />
    <glyph glyph-name="z" unicode="z" horiz-adv-x="568" 
d="M14 0v149l244 243h-89v-36h-149v200h525v-143l-238 -249h96v56h151v-220h-540z" />
    <glyph glyph-name="braceleft" unicode="{" horiz-adv-x="299" 
d="M164.5 -238q-46.5 9 -79.5 41t-33 95q0 39 3 66t10 75q13 74 13 140q0 37 -17 53.5t-39 16.5v109q22 0 39 16t17 54q0 65 -13 139q-7 48 -10 75.5t-3 66.5q0 62 33 94t79.5 41t106.5 9v-89q-54 0 -54 -65q0 -34 3 -61t9 -64q12 -76 12 -134q0 -104 -77 -137
q77 -34 77 -136q0 -58 -12 -134q-6 -37 -9 -64t-3 -61q0 -37 16 -51.5t38 -14.5v-89q-60 0 -106.5 9z" />
    <glyph glyph-name="bar" unicode="|" horiz-adv-x="255" 
d="M62 -327v1267h131v-1267h-131z" />
    <glyph glyph-name="braceright" unicode="}" horiz-adv-x="299" 
d="M28 -158q55 0 55 66q0 34 -3 61t-9 64q-13 71 -13 134q0 102 78 136q-78 33 -78 137q0 63 13 134q6 37 9 64t3 61q0 37 -15 51t-40 14v89q60 0 106.5 -9t79.5 -41t33 -94q0 -66 -13 -142q-12 -80 -12 -139q0 -38 16.5 -54t38.5 -16v-109q-21 0 -38 -16.5t-17 -53.5
q0 -66 13 -140q6 -41 9 -71.5t3 -69.5q0 -63 -33 -95t-79.5 -41t-106.5 -9v89z" />
    <glyph glyph-name="asciitilde" unicode="~" horiz-adv-x="618" 
d="M373.5 294q-31.5 6 -72.5 18q-44 12 -76 18t-72 6q-37 0 -53.5 -11.5t-16.5 -25.5h-53q0 182 152 182q37 0 65 -5.5t76 -17.5q43 -12 74 -18t70 -6q65 0 65 36h56q0 -78 -27.5 -130t-117.5 -52q-38 0 -69.5 6z" />
    <glyph glyph-name="uni00A0" unicode="&#xa0;" horiz-adv-x="300" 
 />
    <glyph glyph-name="exclamdown" unicode="&#xa1;" horiz-adv-x="345" 
d="M56 392v164h226v-164h-226zM20 -222v50l46 509h206l47 -509v-50h-299z" />
    <glyph glyph-name="cent" unicode="&#xa2;" horiz-adv-x="554" 
d="M234 -8q-108 18 -167 90.5t-59 195.5q0 122 59 195t167 91v93h131v-90q53 -6 101 -23.5t74 -35.5v-198h-172v18q0 33 -14 48.5t-44 15.5q-58 0 -58 -64v-86q0 -78 89 -78q83 0 193 18v-157q-25 -10 -71.5 -21t-97.5 -16v-92h-131v96z" />
    <glyph glyph-name="sterling" unicode="&#xa3;" horiz-adv-x="632" 
d="M346 -9.5q-24 4.5 -53 13.5q-29 8 -48 12t-43 4q-36 0 -59 -9t-33 -21l-86 86q86 100 86 207q0 22 -1 32h-84v125h48q-23 51 -23 127q0 62 32 113t98.5 81.5t164.5 30.5q71 0 135.5 -15.5t110.5 -41.5v-166h-181v21q-3 11 -16.5 19.5t-38.5 8.5q-34 0 -49.5 -16
t-15.5 -54q0 -24 4.5 -45t16.5 -63h166v-125h-147q-1 -68 -29 -118q23 -10 43.5 -15t46.5 -5q41 0 58 15.5t17 35.5h146q0 -102 -42.5 -172t-167.5 -70q-32 0 -56 4.5z" />
    <glyph glyph-name="currency" unicode="&#xa4;" horiz-adv-x="584" 
d="M8 160l80 80q-9 33 -9 87q0 48 9 85l-80 81l108 108l65 -66q45 21 111 21t111 -21l66 66l107 -108l-80 -80q10 -36 10 -86q0 -45 -10 -88l80 -79l-107 -107l-67 66q-43 -21 -110 -21t-110 21l-66 -66zM346.5 246q16.5 25 16.5 81t-16.5 81t-54.5 25q-37 0 -53.5 -24.5
t-16.5 -81.5q0 -56 16.5 -81t53.5 -25q38 0 54.5 25z" />
    <glyph glyph-name="yen" unicode="&#xa5;" horiz-adv-x="767" 
d="M453 778h302v-164h-35l-89 -160h89v-79h-133l-38 -68h171v-79h-193v-64h60v-164h-400v164h60v64h-202v79h180l-40 68h-140v79h95l-92 160h-36v164h383v-164h-35l59 -155h10l59 155h-35v164z" />
    <glyph glyph-name="brokenbar" unicode="&#xa6;" horiz-adv-x="255" 
d="M62 406v534h131v-534h-131zM62 -327v535h131v-535h-131z" />
    <glyph glyph-name="section" unicode="&#xa7;" horiz-adv-x="604" 
d="M162 -84.5q-56 9.5 -86 21.5v139q38 -7 85.5 -12.5t78.5 -5.5q42 0 57 7t15 22q0 10 -6 15.5t-20.5 10.5t-50.5 14q-102 25 -157.5 67.5t-55.5 117.5q0 87 64 136q-20 37 -20 85q0 83 62.5 133t192.5 50q64 0 117 -9.5t80 -20.5v-135q-86 14 -155 14q-41 0 -59 -6.5
t-18 -20.5t14 -20.5t62 -15.5q107 -21 161.5 -63.5t54.5 -118.5q0 -42 -15 -80.5t-44 -62.5q15 -33 15 -79q0 -92 -62.5 -142t-189.5 -50q-64 0 -120 9.5zM363 270q21 0 28 7t7 22q0 19 -17 30.5t-65 21.5q-40 9 -69 9q-22 0 -30 -7.5t-8 -22.5q0 -20 19 -31t74 -21
q45 -8 61 -8z" />
    <glyph glyph-name="dieresis" unicode="&#xa8;" horiz-adv-x="502" 
d="M40 611v167h167v-167h-167zM296 611v167h166v-167h-166z" />
    <glyph glyph-name="copyright" unicode="&#xa9;" horiz-adv-x="726" 
d="M193 169.5q-76 43.5 -119.5 119.5t-43.5 170t43.5 170t119.5 119.5t170 43.5t170 -43.5t119.5 -119.5t43.5 -170t-43.5 -170t-119.5 -119.5t-170 -43.5t-170 43.5zM479 261q52 30 82 82t30 116t-30 116t-82 82t-116 30t-116 -30t-82 -82t-30 -116t30 -116t82 -82t116 -30
t116 30zM213 460q0 160 148 160q40 0 73 -10t49 -22v-98h-85v40q0 15 -9 21.5t-28 6.5q-18 0 -27 -6.5t-9 -21.5v-141q0 -27 36 -27q37 0 37 27v44h85v-102q-16 -12 -49 -21.5t-72 -9.5q-149 0 -149 160z" />
    <glyph glyph-name="ordfeminine" unicode="&#xaa;" horiz-adv-x="337" 
d="M33 520q-25 20 -25 58q0 96 180 96q0 21 -9.5 30t-36.5 9q-61 0 -116 -15v76q22 7 60.5 12.5t78.5 5.5q77 0 107.5 -29t30.5 -92v-82h22v-82h-137v34q-12 -16 -33.5 -28.5t-53.5 -12.5q-43 0 -68 20zM174.5 590.5q13.5 11.5 13.5 30.5v3q-44 0 -61 -5.5t-17 -20.5
q0 -19 31 -19q20 0 33.5 11.5z" />
    <glyph glyph-name="guillemotleft" unicode="&#xab;" horiz-adv-x="520" 
d="M158 61l-116 192v47l116 192h131l-79 -208v-15l79 -208h-131zM379 61l-116 192v47l116 192h131l-79 -208v-15l79 -208h-131z" />
    <glyph glyph-name="logicalnot" unicode="&#xac;" horiz-adv-x="547" 
d="M501 426v-302h-161v158h-300v144h461z" />
    <glyph glyph-name="uni00AD" unicode="&#xad;" horiz-adv-x="359" 
d="M34 199v164h291v-164h-291z" />
    <glyph glyph-name="registered" unicode="&#xae;" horiz-adv-x="726" 
d="M193 169.5q-76 43.5 -119.5 119.5t-43.5 170t43.5 170t119.5 119.5t170 43.5t170 -43.5t119.5 -119.5t43.5 -170t-43.5 -170t-119.5 -119.5t-170 -43.5t-170 43.5zM479 261q52 30 82 82t30 116t-30 116t-82 82t-116 30t-116 -30t-82 -82t-30 -116t30 -116t82 -82t116 -30
t116 30zM217 375h27v171h-27v70h185q105 0 105 -89q0 -55 -40 -75v-4q19 -4 28.5 -14.5t9.5 -32.5v-26h20v-69h-121v92q0 23 -14 30.5t-44 7.5v-61h26v-69h-155v69zM382 485q10 0 15 5.5t5 19.5v21q0 25 -20 25h-36v-71h36z" />
    <glyph glyph-name="macron" unicode="&#xaf;" horiz-adv-x="438" 
d="M40 640v118h358v-118h-358z" />
    <glyph glyph-name="degree" unicode="&#xb0;" horiz-adv-x="276" 
d="M53 589q-33 33 -33 85t33 85t85 33t85 -33t33 -85t-33 -85t-85 -33t-85 33zM170.5 641q12.5 13 12.5 33t-12.5 32.5t-32.5 12.5t-33 -12.5t-13 -32.5t13 -33t33 -13t32.5 13z" />
    <glyph glyph-name="plusminus" unicode="&#xb1;" horiz-adv-x="577" 
d="M206 251v164h-166v167h166v166h167v-166h164v-167h-164v-164h-167zM57 42v158h460v-158h-460z" />
    <glyph glyph-name="uni00B2" unicode="&#xb2;" horiz-adv-x="315" 
d="M20 483q0 50 21 84.5t74 77.5q17 13 23 22t6 20q0 24 -37 24t-80 -16v101q56 25 129 25q63 0 98.5 -31t35.5 -84q0 -39 -17 -62t-51 -49q-25 -19 -36.5 -32.5t-11.5 -33.5h121v-100h-275v54z" />
    <glyph glyph-name="uni00B3" unicode="&#xb3;" horiz-adv-x="313" 
d="M293 535q0 -54 -43.5 -84t-114.5 -30q-35 0 -67 5.5t-48 12.5v92q38 -8 69 -8q33 0 47.5 8t14.5 25q0 16 -12.5 23.5t-39.5 7.5h-17v76h17q28 0 39.5 6.5t11.5 22.5q0 17 -13.5 24t-43.5 7q-33 0 -70 -8v90q63 18 123 18q65 0 102 -28.5t37 -80.5q0 -58 -52 -86
q60 -29 60 -93z" />
    <glyph glyph-name="acute" unicode="&#xb4;" horiz-adv-x="403" 
d="M40 611v15l109 152h214v-27l-163 -140h-160z" />
    <glyph glyph-name="uni00B5" unicode="&#xb5;" horiz-adv-x="674" 
d="M44 392h-44v164h274v-328q0 -33 14.5 -48.5t43.5 -15.5t43.5 15.5t14.5 48.5v164h-54v164h284v-392h44v-164h-274v68q-22 -30 -63.5 -56t-89.5 -26l37 -208h-230v614z" />
    <glyph glyph-name="paragraph" unicode="&#xb6;" horiz-adv-x="759" 
d="M290 301q-138 0 -207 66.5t-69 179.5q0 63 30 119t89.5 91t144.5 35q50 0 88.5 -6.5t85.5 -19.5q47 -12 79 -18t73 -6q50 0 73.5 14t23.5 36h56q0 -58 -13.5 -100t-56.5 -68v-784h-164v760q-26 3 -70 15v-775h-163v461z" />
    <glyph glyph-name="periodcentered" unicode="&#xb7;" horiz-adv-x="204" 
d="M24 320v152h156v-152h-156z" />
    <glyph glyph-name="cedilla" unicode="&#xb8;" horiz-adv-x="344" 
d="M40 -228v71q61 -14 112 -14q17 0 25.5 9t8.5 23t-8.5 23t-25.5 9h-44v107h95v-39q45 0 73 -24t28 -70q0 -54 -37.5 -83.5t-103.5 -29.5q-57 0 -123 18z" />
    <glyph glyph-name="uni00B9" unicode="&#xb9;" horiz-adv-x="278" 
d="M28 429v106h48v171h-56v68l89 37h107v-276h42v-106h-230z" />
    <glyph glyph-name="ordmasculine" unicode="&#xba;" horiz-adv-x="322" 
d="M50 537q-40 37 -40 109q0 71 40 108.5t111 37.5q76 0 113.5 -40t37.5 -106q0 -72 -40 -109t-111 -37t-111 37zM190.5 586.5q9.5 7.5 9.5 24.5v70q0 32 -39 32t-39 -32v-70q0 -17 9.5 -24.5t29.5 -7.5t29.5 7.5z" />
    <glyph glyph-name="guillemotright" unicode="&#xbb;" horiz-adv-x="520" 
d="M10 61l79 208v15l-79 208h131l116 -192v-47l-116 -192h-131zM231 61l79 208v15l-79 208h131l116 -192v-47l-116 -192h-131z" />
    <glyph glyph-name="onequarter" unicode="&#xbc;" horiz-adv-x="776" 
d="M38 396v106h48v171h-56v68l89 37h107v-276h42v-106h-230zM115 0v32l465 746h102v-32l-464 -746h-103zM586 0v64h-160v82l159 236h131v-241h30v-77h-30v-64h-130zM513 141h73v108z" />
    <glyph glyph-name="onehalf" unicode="&#xbd;" horiz-adv-x="811" 
d="M38 396v106h48v171h-56v68l89 37h107v-276h42v-106h-230zM115 0v32l465 746h102v-32l-464 -746h-103zM506 54q0 50 21 84.5t74 77.5q17 13 23 22t6 20q0 24 -37 24t-80 -16v101q56 25 129 25q63 0 98.5 -31t35.5 -84q0 -39 -17 -62t-51 -49q-25 -19 -36.5 -32.5
t-11.5 -33.5h121v-100h-275v54z" />
    <glyph glyph-name="threequarters" unicode="&#xbe;" horiz-adv-x="778" 
d="M303 500q0 -54 -43.5 -84t-114.5 -30q-35 0 -67 5.5t-48 12.5v92q38 -8 69 -8q33 0 47.5 8t14.5 25q0 16 -12.5 23.5t-39.5 7.5h-17v76h17q28 0 39.5 6.5t11.5 22.5q0 17 -13.5 24t-43.5 7q-33 0 -70 -8v90q63 18 123 18q65 0 102 -28.5t37 -80.5q0 -58 -52 -86
q60 -29 60 -93zM117 0v32l465 746h102v-32l-464 -746h-103zM588 0v64h-160v82l159 236h131v-241h30v-77h-30v-64h-130zM515 141h73v108z" />
    <glyph glyph-name="questiondown" unicode="&#xbf;" horiz-adv-x="630" 
d="M239 392v164h238v-164h-238zM141.5 -210.5q-63.5 25.5 -97.5 72.5t-34 109q0 54 17.5 91t42.5 60.5t66 51.5q34 24 54.5 42t34 44t13.5 62v15h239v-46q0 -45 -16.5 -78.5t-39.5 -54.5t-59 -46t-53 -43t-17 -43q0 -40 60 -40q47 0 105 18t106 41l53 -204q-66 -31 -153 -54
t-173 -23q-85 0 -148.5 25.5z" />
    <glyph glyph-name="Agrave" unicode="&#xc0;" horiz-adv-x="806" 
d="M754 164h40v-164h-392v164h60l-16 80h-136l-16 -80h60v-164h-342v164h40l169 614h364zM332 350h92l-41 199h-10zM338 838l-163 85v26h251l109 -96v-15h-197z" />
    <glyph glyph-name="Aacute" unicode="&#xc1;" horiz-adv-x="806" 
d="M754 164h40v-164h-392v164h60l-16 80h-136l-16 -80h60v-164h-342v164h40l169 614h364zM332 350h92l-41 199h-10zM273 838v15l109 96h251v-26l-163 -85h-197z" />
    <glyph glyph-name="Acircumflex" unicode="&#xc2;" horiz-adv-x="806" 
d="M754 164h40v-164h-392v164h60l-16 80h-136l-16 -80h60v-164h-342v164h40l169 614h364zM332 350h92l-41 199h-10zM151 838v15l127 126h250l127 -126v-15h-154l-93 81h-10l-93 -81h-154z" />
    <glyph glyph-name="Atilde" unicode="&#xc3;" horiz-adv-x="806" 
d="M754 164h40v-164h-392v164h60l-16 80h-136l-16 -80h60v-164h-342v164h40l169 614h364zM332 350h92l-41 199h-10zM459.5 843q-28.5 5 -68.5 15q-42 9 -66 13.5t-48 4.5q-26 0 -43 -10.5t-17 -26.5h-56q0 84 27.5 120.5t102.5 36.5q33 0 63 -5t70 -15q38 -8 60 -12t45 -4
q28 0 44 9t16 26h56q0 -56 -11 -89.5t-39 -50.5t-80 -17q-27 0 -55.5 5z" />
    <glyph glyph-name="Adieresis" unicode="&#xc4;" horiz-adv-x="806" 
d="M754 164h40v-164h-392v164h60l-16 80h-136l-16 -80h60v-164h-342v164h40l169 614h364zM332 350h92l-41 199h-10zM192 838v127h184v-127h-184zM430 838v127h184v-127h-184z" />
    <glyph glyph-name="Aring" unicode="&#xc5;" horiz-adv-x="806" 
d="M754 164h40v-164h-392v164h60l-16 80h-136l-16 -80h60v-164h-342v164h40l169 614h364zM332 350h92l-41 199h-10zM309 872q-37 34 -37 86t37 86t94 34t94 -34t37 -86t-37 -86t-94 -34t-94 34zM434 925q12 13 12 33t-12 32.5t-31 12.5t-31.5 -12.5t-12.5 -32.5t12.5 -33
t31.5 -13t31 13z" />
    <glyph glyph-name="AE" unicode="&#xc6;" horiz-adv-x="1138" 
d="M1120 476h-224v138h-121v-158h88v-114h-88v-178h121v158h224v-322h-675v164h50v80h-137l-29 -80h60v-164h-377v164h40l259 614h809v-302zM401 360h94v231h-10z" />
    <glyph glyph-name="Ccedilla" unicode="&#xc7;" horiz-adv-x="722" 
d="M464 468v72q0 38 -17 56t-51 18t-51 -18t-17 -56v-302q0 -38 17 -56t51 -18t51 18t17 56v81h240v-259q-35 -24 -102 -45t-147 -27v-27q45 0 73 -24t28 -70q0 -54 -37.5 -83.5t-103.5 -29.5q-57 0 -123 18v71q61 -14 112 -14q17 0 25.5 9t8.5 23t-8.5 23t-25.5 9h-44v95
q-346 23 -346 401q0 403 392 403q95 0 176.5 -23t121.5 -51v-250h-240z" />
    <glyph glyph-name="Egrave" unicode="&#xc8;" horiz-adv-x="713" 
d="M20 0v164h50v450h-50v164h675v-302h-224v138h-121v-158h88v-114h-88v-178h121v158h224v-322h-675zM318 838l-163 85v26h251l109 -96v-15h-197z" />
    <glyph glyph-name="Eacute" unicode="&#xc9;" horiz-adv-x="713" 
d="M20 0v164h50v450h-50v164h675v-302h-224v138h-121v-158h88v-114h-88v-178h121v158h224v-322h-675zM253 838v15l109 96h251v-26l-163 -85h-197z" />
    <glyph glyph-name="Ecircumflex" unicode="&#xca;" horiz-adv-x="713" 
d="M20 0v164h50v450h-50v164h675v-302h-224v138h-121v-158h88v-114h-88v-178h121v158h224v-322h-675zM131 838v15l127 126h250l127 -126v-15h-154l-93 81h-10l-93 -81h-154z" />
    <glyph glyph-name="Edieresis" unicode="&#xcb;" horiz-adv-x="713" 
d="M20 0v164h50v450h-50v164h675v-302h-224v138h-121v-158h88v-114h-88v-178h121v158h224v-322h-675zM172 838v127h184v-127h-184zM410 838v127h184v-127h-184z" />
    <glyph glyph-name="Igrave" unicode="&#xcc;" horiz-adv-x="420" 
d="M20 0v164h50v450h-50v164h380v-164h-50v-450h50v-164h-380zM145 838l-163 85v26h251l109 -96v-15h-197z" />
    <glyph glyph-name="Iacute" unicode="&#xcd;" horiz-adv-x="420" 
d="M20 0v164h50v450h-50v164h380v-164h-50v-450h50v-164h-380zM80 838v15l109 96h251v-26l-163 -85h-197z" />
    <glyph glyph-name="Icircumflex" unicode="&#xce;" horiz-adv-x="420" 
d="M20 0v164h50v450h-50v164h380v-164h-50v-450h50v-164h-380zM-42 838v15l127 126h250l127 -126v-15h-154l-93 81h-10l-93 -81h-154z" />
    <glyph glyph-name="Idieresis" unicode="&#xcf;" horiz-adv-x="420" 
d="M20 0v164h50v450h-50v164h380v-164h-50v-450h50v-164h-380zM-1 838v127h184v-127h-184zM237 838v127h184v-127h-184z" />
    <glyph glyph-name="Eth" unicode="&#xd0;" horiz-adv-x="826" 
d="M709.5 686.5q98.5 -91.5 98.5 -297.5t-98.5 -297.5t-265.5 -91.5h-416v164h60v147h-71v164h71v138h-60v165h416q167 0 265.5 -91.5zM494 540q0 74 -68 74h-58v-139h61v-164h-61v-147h58q34 0 51 18t17 56v302z" />
    <glyph glyph-name="Ntilde" unicode="&#xd1;" horiz-adv-x="942" 
d="M596 778h328v-164h-50v-614h-281l-293 451v-287h48v-164h-328v164h50v450h-50v164h361l263 -401v237h-48v164zM537.5 843q-28.5 5 -68.5 15q-42 9 -66 13.5t-48 4.5q-26 0 -43 -10.5t-17 -26.5h-56q0 84 27.5 120.5t102.5 36.5q33 0 63 -5t70 -15q38 -8 60 -12t45 -4
q28 0 44 9t16 26h56q0 -56 -11 -89.5t-39 -50.5t-80 -17q-27 0 -55.5 5z" />
    <glyph glyph-name="Ograve" unicode="&#xd2;" horiz-adv-x="792" 
d="M113.5 82q-99.5 96 -99.5 307t99.5 307t282.5 96t282.5 -96t99.5 -307t-99.5 -307t-282.5 -96t-282.5 96zM447 182q17 18 17 56v302q0 38 -17 56t-51 18t-51 -18t-17 -56v-302q0 -39 17 -56.5t51 -17.5t51 18zM331 838l-163 85v26h251l109 -96v-15h-197z" />
    <glyph glyph-name="Oacute" unicode="&#xd3;" horiz-adv-x="792" 
d="M113.5 82q-99.5 96 -99.5 307t99.5 307t282.5 96t282.5 -96t99.5 -307t-99.5 -307t-282.5 -96t-282.5 96zM447 182q17 18 17 56v302q0 38 -17 56t-51 18t-51 -18t-17 -56v-302q0 -39 17 -56.5t51 -17.5t51 18zM266 838v15l109 96h251v-26l-163 -85h-197z" />
    <glyph glyph-name="Ocircumflex" unicode="&#xd4;" horiz-adv-x="792" 
d="M113.5 82q-99.5 96 -99.5 307t99.5 307t282.5 96t282.5 -96t99.5 -307t-99.5 -307t-282.5 -96t-282.5 96zM447 182q17 18 17 56v302q0 38 -17 56t-51 18t-51 -18t-17 -56v-302q0 -39 17 -56.5t51 -17.5t51 18zM144 838v15l127 126h250l127 -126v-15h-154l-93 81h-10
l-93 -81h-154z" />
    <glyph glyph-name="Otilde" unicode="&#xd5;" horiz-adv-x="792" 
d="M113.5 82q-99.5 96 -99.5 307t99.5 307t282.5 96t282.5 -96t99.5 -307t-99.5 -307t-282.5 -96t-282.5 96zM447 182q17 18 17 56v302q0 38 -17 56t-51 18t-51 -18t-17 -56v-302q0 -39 17 -56.5t51 -17.5t51 18zM452.5 843q-28.5 5 -68.5 15q-42 9 -66 13.5t-48 4.5
q-26 0 -43 -10.5t-17 -26.5h-56q0 84 27.5 120.5t102.5 36.5q33 0 63 -5t70 -15q38 -8 60 -12t45 -4q28 0 44 9t16 26h56q0 -56 -11 -89.5t-39 -50.5t-80 -17q-27 0 -55.5 5z" />
    <glyph glyph-name="Odieresis" unicode="&#xd6;" horiz-adv-x="792" 
d="M113.5 82q-99.5 96 -99.5 307t99.5 307t282.5 96t282.5 -96t99.5 -307t-99.5 -307t-282.5 -96t-282.5 96zM447 182q17 18 17 56v302q0 38 -17 56t-51 18t-51 -18t-17 -56v-302q0 -39 17 -56.5t51 -17.5t51 18zM185 838v127h184v-127h-184zM423 838v127h184v-127h-184z
" />
    <glyph glyph-name="multiply" unicode="&#xd7;" horiz-adv-x="570" 
d="M156 80l-124 123l129 129l-129 130l124 124l129 -130l130 130l123 -124l-130 -130l130 -129l-123 -123l-130 129z" />
    <glyph glyph-name="Oslash" unicode="&#xd8;" horiz-adv-x="792" 
d="M778 389q0 -211 -99.5 -307t-282.5 -96q-139 0 -228 54l-34 -40h-110v30l66 78q-76 101 -76 281q0 211 99.5 307t282.5 96q141 0 228 -53l34 40h110v-30l-67 -79q77 -99 77 -281zM322 382l148 174q-3 33 -21 48.5t-53 15.5q-37 0 -55.5 -18t-18.5 -56v-164zM451.5 176
q18.5 18 18.5 56v165l-148 -175q2 -34 20.5 -49t53.5 -15q37 0 55.5 18z" />
    <glyph glyph-name="Ugrave" unicode="&#xd9;" horiz-adv-x="781" 
d="M151.5 55q-85.5 69 -85.5 224v335h-50v164h370v-164h-40v-386q0 -33 14.5 -48.5t43.5 -15.5t43.5 15.5t14.5 48.5v386h-40v164h343v-164h-50v-335q0 -155 -83 -224t-238 -69q-157 0 -242.5 69zM337 838l-163 85v26h251l109 -96v-15h-197z" />
    <glyph glyph-name="Uacute" unicode="&#xda;" horiz-adv-x="781" 
d="M151.5 55q-85.5 69 -85.5 224v335h-50v164h370v-164h-40v-386q0 -33 14.5 -48.5t43.5 -15.5t43.5 15.5t14.5 48.5v386h-40v164h343v-164h-50v-335q0 -155 -83 -224t-238 -69q-157 0 -242.5 69zM272 838v15l109 96h251v-26l-163 -85h-197z" />
    <glyph glyph-name="Ucircumflex" unicode="&#xdb;" horiz-adv-x="781" 
d="M151.5 55q-85.5 69 -85.5 224v335h-50v164h370v-164h-40v-386q0 -33 14.5 -48.5t43.5 -15.5t43.5 15.5t14.5 48.5v386h-40v164h343v-164h-50v-335q0 -155 -83 -224t-238 -69q-157 0 -242.5 69zM150 838v15l127 126h250l127 -126v-15h-154l-93 81h-10l-93 -81h-154z" />
    <glyph glyph-name="Udieresis" unicode="&#xdc;" horiz-adv-x="781" 
d="M151.5 55q-85.5 69 -85.5 224v335h-50v164h370v-164h-40v-386q0 -33 14.5 -48.5t43.5 -15.5t43.5 15.5t14.5 48.5v386h-40v164h343v-164h-50v-335q0 -155 -83 -224t-238 -69q-157 0 -242.5 69zM191 838v127h184v-127h-184zM429 838v127h184v-127h-184z" />
    <glyph glyph-name="Yacute" unicode="&#xdd;" horiz-adv-x="776" 
d="M457 778h307v-164h-40l-193 -346v-104h50v-164h-380v164h50v104l-199 346h-40v164h387v-164h-35l59 -155h10l59 155h-35v164zM298 838v15l109 96h251v-26l-163 -85h-197z" />
    <glyph glyph-name="Thorn" unicode="&#xde;" horiz-adv-x="762" 
d="M659.5 531.5q62.5 -37.5 62.5 -127.5q0 -175 -236 -175h-118v-65h96v-164h-436v164h60v450h-60v164h400v-164h-60v-45h118q111 0 173.5 -37.5zM440 391q0 22 -13 33t-35 11h-24v-104h24q22 0 35 11t13 33v16z" />
    <glyph glyph-name="germandbls" unicode="&#xdf;" horiz-adv-x="709" 
d="M415 -4.5q-44 9.5 -73 21.5v139q18 -8 40.5 -13t40.5 -5q50 0 50 36q0 19 -14 34.5t-44 37.5q-44 33 -68 63t-24 76q0 29 10.5 51.5t30.5 50.5q18 24 26.5 41.5t8.5 38.5q0 23 -12.5 35t-40.5 12q-30 0 -42 -14.5t-12 -44.5v-555h-274v164h44v228h-44v164h46
q0 87 30 138.5t93 74.5t166 23q124 0 194.5 -44t70.5 -139q0 -40 -14 -68.5t-39 -62.5q-17 -24 -24.5 -38t-7.5 -29q0 -26 15 -42.5t49 -40.5q32 -23 51 -40.5t33 -47t14 -71.5q0 -83 -49 -133t-145 -50q-42 0 -86 9.5z" />
    <glyph glyph-name="agrave" unicode="&#xe0;" horiz-adv-x="615" 
d="M601 164v-164h-264v68q-22 -32 -61.5 -57t-96.5 -25q-75 0 -118 40t-43 113q0 189 321 194q-3 34 -26 46.5t-78 12.5q-45 0 -96.5 -9.5t-94.5 -25.5v184q53 13 115 21t121 8q149 0 213 -54t64 -167v-185h44zM337 234q-45 0 -69.5 -12t-24.5 -40q0 -17 10.5 -27.5
t29.5 -10.5q26 0 40 22t14 62v6zM237 616l-163 140v27h214l109 -152v-15h-160z" />
    <glyph glyph-name="aacute" unicode="&#xe1;" horiz-adv-x="615" 
d="M601 164v-164h-264v68q-22 -32 -61.5 -57t-96.5 -25q-75 0 -118 40t-43 113q0 189 321 194q-3 34 -26 46.5t-78 12.5q-45 0 -96.5 -9.5t-94.5 -25.5v184q53 13 115 21t121 8q149 0 213 -54t64 -167v-185h44zM337 234q-45 0 -69.5 -12t-24.5 -40q0 -17 10.5 -27.5
t29.5 -10.5q26 0 40 22t14 62v6zM228 616v15l109 152h214v-27l-163 -140h-160z" />
    <glyph glyph-name="acircumflex" unicode="&#xe2;" horiz-adv-x="615" 
d="M601 164v-164h-264v68q-22 -32 -61.5 -57t-96.5 -25q-75 0 -118 40t-43 113q0 189 321 194q-3 34 -26 46.5t-78 12.5q-45 0 -96.5 -9.5t-94.5 -25.5v184q53 13 115 21t121 8q149 0 213 -54t64 -167v-185h44zM337 234q-45 0 -69.5 -12t-24.5 -40q0 -17 10.5 -27.5
t29.5 -10.5q26 0 40 22t14 62v6zM98 616v15l118 152h198l118 -152v-15h-150l-62 65h-10l-62 -65h-150z" />
    <glyph glyph-name="atilde" unicode="&#xe3;" horiz-adv-x="615" 
d="M601 164v-164h-264v68q-22 -32 -61.5 -57t-96.5 -25q-75 0 -118 40t-43 113q0 189 321 194q-3 34 -26 46.5t-78 12.5q-45 0 -96.5 -9.5t-94.5 -25.5v184q53 13 115 21t121 8q149 0 213 -54t64 -167v-185h44zM337 234q-45 0 -69.5 -12t-24.5 -40q0 -17 10.5 -27.5
t29.5 -10.5q26 0 40 22t14 62v6zM356 623q-28 7 -65 20q-31 11 -51.5 16t-39.5 5t-30.5 -10t-11.5 -27h-56q0 86 25.5 128.5t94.5 42.5q31 0 56.5 -6.5t60.5 -18.5q30 -11 50 -16t41 -5q22 0 32 10.5t10 24.5h56q0 -87 -22.5 -129t-90.5 -42q-31 0 -59 7z" />
    <glyph glyph-name="adieresis" unicode="&#xe4;" horiz-adv-x="615" 
d="M601 164v-164h-264v68q-22 -32 -61.5 -57t-96.5 -25q-75 0 -118 40t-43 113q0 189 321 194q-3 34 -26 46.5t-78 12.5q-45 0 -96.5 -9.5t-94.5 -25.5v184q53 13 115 21t121 8q149 0 213 -54t64 -167v-185h44zM337 234q-45 0 -69.5 -12t-24.5 -40q0 -17 10.5 -27.5
t29.5 -10.5q26 0 40 22t14 62v6zM104 626v167h167v-167h-167zM360 626v167h166v-167h-166z" />
    <glyph glyph-name="aring" unicode="&#xe5;" horiz-adv-x="615" 
d="M601 164v-164h-264v68q-22 -32 -61.5 -57t-96.5 -25q-75 0 -118 40t-43 113q0 189 321 194q-3 34 -26 46.5t-78 12.5q-45 0 -96.5 -9.5t-94.5 -25.5v184q53 13 115 21t121 8q149 0 213 -54t64 -167v-185h44zM337 234q-45 0 -69.5 -12t-24.5 -40q0 -17 10.5 -27.5
t29.5 -10.5q26 0 40 22t14 62v6zM228 650.5q-35 34.5 -35 87.5t35 87.5t90 34.5t90 -34.5t35 -87.5t-35 -87.5t-90 -34.5t-90 34.5zM346 707q11 12 11 31t-11 30.5t-28 11.5t-28.5 -11.5t-11.5 -30.5t11.5 -31t28.5 -12t28 12z" />
    <glyph glyph-name="ae" unicode="&#xe6;" horiz-adv-x="905" 
d="M569 242v-6q0 -37 22 -54.5t73 -17.5q61 0 116 9t96 23v-160q-35 -19 -102.5 -34.5t-146.5 -15.5q-82 0 -144.5 25.5t-101.5 75.5q-34 -43 -84 -72t-118 -29q-75 0 -118 40t-43 113q0 189 321 194q-3 34 -26 46.5t-78 12.5q-45 0 -96.5 -9.5t-94.5 -25.5v184
q53 13 115 21t121 8q121 0 185 -48q72 48 173 48q134 0 194.5 -74t60.5 -182v-72h-324zM569 352h116v12q0 34 -14.5 49t-43.5 15t-43.5 -15.5t-14.5 -48.5v-12zM337 234q-45 0 -69.5 -12t-24.5 -40q0 -17 10.5 -27.5t29.5 -10.5q26 0 40 22t14 62v6z" />
    <glyph glyph-name="ccedilla" unicode="&#xe7;" horiz-adv-x="562" 
d="M374 310v18q0 33 -14 48.5t-44 15.5q-58 0 -58 -64v-86q0 -78 89 -78q83 0 193 18v-157q-29 -12 -76 -23t-100 -14v-27q45 0 73 -24t28 -70q0 -54 -37.5 -83.5t-103.5 -29.5q-57 0 -123 18v71q61 -14 112 -14q17 0 25.5 9t8.5 23t-8.5 23t-25.5 9h-44v95
q-121 12 -188 85.5t-67 204.5q0 143 80 217.5t222 74.5q69 0 132 -19t98 -43v-198h-172z" />
    <glyph glyph-name="egrave" unicode="&#xe8;" horiz-adv-x="594" 
d="M94 60.5q-80 74.5 -80 217.5t80 217.5t222 74.5q141 0 203.5 -73.5t62.5 -182.5v-72h-324v-6q0 -37 22 -54.5t73 -17.5q61 0 116 9t96 23v-160q-35 -19 -102.5 -34.5t-146.5 -15.5q-142 0 -222 74.5zM374 352v12q0 34 -14.5 49t-43.5 15t-43.5 -15.5t-14.5 -48.5v-12h116
zM238 616l-163 140v27h214l109 -152v-15h-160z" />
    <glyph glyph-name="eacute" unicode="&#xe9;" horiz-adv-x="594" 
d="M94 60.5q-80 74.5 -80 217.5t80 217.5t222 74.5q141 0 203.5 -73.5t62.5 -182.5v-72h-324v-6q0 -37 22 -54.5t73 -17.5q61 0 116 9t96 23v-160q-35 -19 -102.5 -34.5t-146.5 -15.5q-142 0 -222 74.5zM374 352v12q0 34 -14.5 49t-43.5 15t-43.5 -15.5t-14.5 -48.5v-12h116
zM229 616v15l109 152h214v-27l-163 -140h-160z" />
    <glyph glyph-name="ecircumflex" unicode="&#xea;" horiz-adv-x="594" 
d="M94 60.5q-80 74.5 -80 217.5t80 217.5t222 74.5q141 0 203.5 -73.5t62.5 -182.5v-72h-324v-6q0 -37 22 -54.5t73 -17.5q61 0 116 9t96 23v-160q-35 -19 -102.5 -34.5t-146.5 -15.5q-142 0 -222 74.5zM374 352v12q0 34 -14.5 49t-43.5 15t-43.5 -15.5t-14.5 -48.5v-12h116
zM99 616v15l118 152h198l118 -152v-15h-150l-62 65h-10l-62 -65h-150z" />
    <glyph glyph-name="edieresis" unicode="&#xeb;" horiz-adv-x="594" 
d="M94 60.5q-80 74.5 -80 217.5t80 217.5t222 74.5q141 0 203.5 -73.5t62.5 -182.5v-72h-324v-6q0 -37 22 -54.5t73 -17.5q61 0 116 9t96 23v-160q-35 -19 -102.5 -34.5t-146.5 -15.5q-142 0 -222 74.5zM374 352v12q0 34 -14.5 49t-43.5 15t-43.5 -15.5t-14.5 -48.5v-12h116
zM105 626v167h167v-167h-167zM361 626v167h166v-167h-166z" />
    <glyph glyph-name="igrave" unicode="&#xec;" horiz-adv-x="346" 
d="M18 0v164h44v228h-44v164h274v-392h44v-164h-318zM104 616l-133 140v27h204l79 -152v-15h-150z" />
    <glyph glyph-name="iacute" unicode="&#xed;" horiz-adv-x="346" 
d="M18 0v164h44v228h-44v164h274v-392h44v-164h-318zM80 616v15l109 152h214v-27l-163 -140h-160z" />
    <glyph glyph-name="icircumflex" unicode="&#xee;" horiz-adv-x="346" 
d="M18 0v164h44v228h-44v164h274v-392h44v-164h-318zM-50 616v15l118 152h198l118 -152v-15h-150l-62 65h-10l-62 -65h-150z" />
    <glyph glyph-name="idieresis" unicode="&#xef;" horiz-adv-x="346" 
d="M18 0v164h44v228h-44v164h274v-392h44v-164h-318zM-44 626v167h167v-167h-167zM212 626v167h166v-167h-166z" />
    <glyph glyph-name="eth" unicode="&#xf0;" horiz-adv-x="606" 
d="M551.5 534.5q60.5 -105.5 60.5 -226.5q0 -322 -302 -322q-142 0 -222 69t-80 203q0 130 67.5 201t185.5 71q47 0 82 -11l6 8q-46 56 -98 97l-81 -68l-58 68l65 55q-42 29 -98 59v21l114 71q56 -26 100 -52l82 69l59 -69l-62 -52q119 -86 179.5 -191.5zM368 288
q0 33 -14.5 48.5t-43.5 15.5t-43.5 -15.5t-14.5 -48.5v-60q0 -33 14.5 -48.5t43.5 -15.5t43.5 15.5t14.5 48.5v60z" />
    <glyph glyph-name="ntilde" unicode="&#xf1;" horiz-adv-x="696" 
d="M682 164v-164h-316v164h42v164q0 33 -14 48.5t-42 15.5q-60 0 -60 -64v-164h42v-164h-316v164h44v228h-44v164h274v-78q72 92 180 92q83 0 124.5 -52t41.5 -143v-211h44zM392 623q-28 7 -65 20q-31 11 -51.5 16t-39.5 5t-30.5 -10t-11.5 -27h-56q0 86 25.5 128.5
t94.5 42.5q31 0 56.5 -6.5t60.5 -18.5q30 -11 50 -16t41 -5q22 0 32 10.5t10 24.5h56q0 -87 -22.5 -129t-90.5 -42q-31 0 -59 7z" />
    <glyph glyph-name="ograve" unicode="&#xf2;" horiz-adv-x="632" 
d="M94 60.5q-80 74.5 -80 217.5t80 217.5t222 74.5q144 0 223 -75.5t79 -216.5q0 -143 -80 -217.5t-222 -74.5t-222 74.5zM359.5 179.5q14.5 15.5 14.5 48.5v100q0 33 -14.5 48.5t-43.5 15.5t-43.5 -15.5t-14.5 -48.5v-100q0 -33 14.5 -48.5t43.5 -15.5t43.5 15.5zM238 616
l-163 140v27h214l109 -152v-15h-160z" />
    <glyph glyph-name="oacute" unicode="&#xf3;" horiz-adv-x="632" 
d="M94 60.5q-80 74.5 -80 217.5t80 217.5t222 74.5q144 0 223 -75.5t79 -216.5q0 -143 -80 -217.5t-222 -74.5t-222 74.5zM359.5 179.5q14.5 15.5 14.5 48.5v100q0 33 -14.5 48.5t-43.5 15.5t-43.5 -15.5t-14.5 -48.5v-100q0 -33 14.5 -48.5t43.5 -15.5t43.5 15.5zM229 616
v15l109 152h214v-27l-163 -140h-160z" />
    <glyph glyph-name="ocircumflex" unicode="&#xf4;" horiz-adv-x="632" 
d="M94 60.5q-80 74.5 -80 217.5t80 217.5t222 74.5q144 0 223 -75.5t79 -216.5q0 -143 -80 -217.5t-222 -74.5t-222 74.5zM359.5 179.5q14.5 15.5 14.5 48.5v100q0 33 -14.5 48.5t-43.5 15.5t-43.5 -15.5t-14.5 -48.5v-100q0 -33 14.5 -48.5t43.5 -15.5t43.5 15.5zM99 616
v15l118 152h198l118 -152v-15h-150l-62 65h-10l-62 -65h-150z" />
    <glyph glyph-name="otilde" unicode="&#xf5;" horiz-adv-x="632" 
d="M94 60.5q-80 74.5 -80 217.5t80 217.5t222 74.5q144 0 223 -75.5t79 -216.5q0 -143 -80 -217.5t-222 -74.5t-222 74.5zM359.5 179.5q14.5 15.5 14.5 48.5v100q0 33 -14.5 48.5t-43.5 15.5t-43.5 -15.5t-14.5 -48.5v-100q0 -33 14.5 -48.5t43.5 -15.5t43.5 15.5zM357 623
q-28 7 -65 20q-31 11 -51.5 16t-39.5 5t-30.5 -10t-11.5 -27h-56q0 86 25.5 128.5t94.5 42.5q31 0 56.5 -6.5t60.5 -18.5q30 -11 50 -16t41 -5q22 0 32 10.5t10 24.5h56q0 -87 -22.5 -129t-90.5 -42q-31 0 -59 7z" />
    <glyph glyph-name="odieresis" unicode="&#xf6;" horiz-adv-x="632" 
d="M94 60.5q-80 74.5 -80 217.5t80 217.5t222 74.5q144 0 223 -75.5t79 -216.5q0 -143 -80 -217.5t-222 -74.5t-222 74.5zM359.5 179.5q14.5 15.5 14.5 48.5v100q0 33 -14.5 48.5t-43.5 15.5t-43.5 -15.5t-14.5 -48.5v-100q0 -33 14.5 -48.5t43.5 -15.5t43.5 15.5zM105 626
v167h167v-167h-167zM361 626v167h166v-167h-166z" />
    <glyph glyph-name="divide" unicode="&#xf7;" horiz-adv-x="521" 
d="M179 456v152h156v-152h-156zM40 260v144h441v-144h-441zM179 52v152h156v-152h-156z" />
    <glyph glyph-name="oslash" unicode="&#xf8;" horiz-adv-x="632" 
d="M618 278q0 -143 -80 -217.5t-222 -74.5q-120 0 -196 53l-25 -32h-71v20l47 58q-57 72 -57 193q0 143 80 217.5t222 74.5q119 0 193 -51l29 37h70v-20l-50 -62q60 -74 60 -196zM268 382.5q-16 -15.5 -16 -48.5v-75l119 114q-15 25 -55 25q-32 0 -48 -15.5zM365 173
q15 15 15 49v71l-118 -113q16 -22 54 -22q34 0 49 15z" />
    <glyph glyph-name="ugrave" unicode="&#xf9;" horiz-adv-x="686" 
d="M676 164v-164h-274v78q-72 -92 -180 -92q-83 0 -124.5 52t-41.5 143v211h-44v164h274v-328q0 -33 14.5 -48.5t43.5 -15.5t43.5 15.5t14.5 48.5v164h-54v164h284v-392h44zM239 616l-163 140v27h214l109 -152v-15h-160z" />
    <glyph glyph-name="uacute" unicode="&#xfa;" horiz-adv-x="686" 
d="M676 164v-164h-274v78q-72 -92 -180 -92q-83 0 -124.5 52t-41.5 143v211h-44v164h274v-328q0 -33 14.5 -48.5t43.5 -15.5t43.5 15.5t14.5 48.5v164h-54v164h284v-392h44zM230 616v15l109 152h214v-27l-163 -140h-160z" />
    <glyph glyph-name="ucircumflex" unicode="&#xfb;" horiz-adv-x="686" 
d="M676 164v-164h-274v78q-72 -92 -180 -92q-83 0 -124.5 52t-41.5 143v211h-44v164h274v-328q0 -33 14.5 -48.5t43.5 -15.5t43.5 15.5t14.5 48.5v164h-54v164h284v-392h44zM100 616v15l118 152h198l118 -152v-15h-150l-62 65h-10l-62 -65h-150z" />
    <glyph glyph-name="udieresis" unicode="&#xfc;" horiz-adv-x="686" 
d="M676 164v-164h-274v78q-72 -92 -180 -92q-83 0 -124.5 52t-41.5 143v211h-44v164h274v-328q0 -33 14.5 -48.5t43.5 -15.5t43.5 15.5t14.5 48.5v164h-54v164h284v-392h44zM106 626v167h167v-167h-167zM362 626v167h166v-167h-166z" />
    <glyph glyph-name="yacute" unicode="&#xfd;" horiz-adv-x="632" 
d="M620 556v-164h-38l-131 -347q-49 -131 -112 -196.5t-166 -65.5q-42 0 -85 8.5t-78 23.5v181h138v-10q0 -25 26 -25q23 0 35 22l-158 409h-38v164h297v-164h-34l52 -156l48 156h-34v164h278zM239 616v15l109 152h214v-27l-163 -140h-160z" />
    <glyph glyph-name="thorn" unicode="&#xfe;" horiz-adv-x="652" 
d="M588.5 494q51.5 -76 51.5 -216t-51.5 -216t-153.5 -76q-51 0 -90.5 25t-64.5 57v-126h69v-164h-343v164h44v672h-44v164h274v-290q25 32 64.5 57t90.5 25q102 0 153.5 -76zM396 328q0 33 -14.5 48.5t-43.5 15.5t-43.5 -15.5t-14.5 -48.5v-100q0 -33 14.5 -48.5
t43.5 -15.5t43.5 15.5t14.5 48.5v100z" />
    <glyph glyph-name="ydieresis" unicode="&#xff;" horiz-adv-x="632" 
d="M620 556v-164h-38l-131 -347q-49 -131 -112 -196.5t-166 -65.5q-42 0 -85 8.5t-78 23.5v181h138v-10q0 -25 26 -25q23 0 35 22l-158 409h-38v164h297v-164h-34l52 -156l48 156h-34v164h278zM115 626v167h167v-167h-167zM371 626v167h166v-167h-166z" />
    <glyph glyph-name="Amacron" unicode="&#x100;" horiz-adv-x="806" 
d="M754 164h40v-164h-392v164h60l-16 80h-136l-16 -80h60v-164h-342v164h40l169 614h364zM332 350h92l-41 199h-10zM224 840v98h358v-98h-358z" />
    <glyph glyph-name="amacron" unicode="&#x101;" horiz-adv-x="615" 
d="M601 164v-164h-264v68q-22 -32 -61.5 -57t-96.5 -25q-75 0 -118 40t-43 113q0 189 321 194q-3 34 -26 46.5t-78 12.5q-45 0 -96.5 -9.5t-94.5 -25.5v184q53 13 115 21t121 8q149 0 213 -54t64 -167v-185h44zM337 234q-45 0 -69.5 -12t-24.5 -40q0 -17 10.5 -27.5
t29.5 -10.5q26 0 40 22t14 62v6zM136 635v118h358v-118h-358z" />
    <glyph glyph-name="Abreve" unicode="&#x102;" horiz-adv-x="806" 
d="M754 164h40v-164h-392v164h60l-16 80h-136l-16 -80h60v-164h-342v164h40l169 614h364zM332 350h92l-41 199h-10zM247 877q-56 39 -56 108v10h149v-10q0 -45 63 -45t63 45v10h149v-10q0 -69 -56 -108t-156 -39t-156 39z" />
    <glyph glyph-name="abreve" unicode="&#x103;" horiz-adv-x="615" 
d="M601 164v-164h-264v68q-22 -32 -61.5 -57t-96.5 -25q-75 0 -118 40t-43 113q0 189 321 194q-3 34 -26 46.5t-78 12.5q-45 0 -96.5 -9.5t-94.5 -25.5v184q53 13 115 21t121 8q149 0 213 -54t64 -167v-185h44zM337 234q-45 0 -69.5 -12t-24.5 -40q0 -17 10.5 -27.5
t29.5 -10.5q26 0 40 22t14 62v6zM159 662q-56 44 -56 123v10h149v-10q0 -65 63 -65t63 65v10h149v-10q0 -79 -56 -123t-156 -44t-156 44z" />
    <glyph glyph-name="Aogonek" unicode="&#x104;" horiz-adv-x="806" 
d="M754 164h40v-164h-392v164h60l-16 80h-136l-16 -80h60v-164h-342v164h40l169 614h364zM332 350h92l-41 199h-10zM545 -187.5q-35 28.5 -35 80.5q0 38 20.5 75t53.5 62h88q-23 -16 -38.5 -39t-15.5 -49q0 -27 17 -42.5t47 -15.5q32 0 60 9v-85q-48 -24 -100 -24
q-62 0 -97 28.5z" />
    <glyph glyph-name="aogonek" unicode="&#x105;" horiz-adv-x="615" 
d="M488 0q-23 -30 -23 -58q0 -27 17 -42.5t47 -15.5q32 0 60 9v-85q-48 -24 -100 -24q-62 0 -97 28.5t-35 80.5q0 28 11.5 56t31.5 51h-63v68q-22 -32 -61.5 -57t-96.5 -25q-75 0 -118 40t-43 113q0 189 321 194q-3 34 -26 46.5t-78 12.5q-45 0 -96.5 -9.5t-94.5 -25.5v184
q53 13 115 21t121 8q149 0 213 -54t64 -167v-185h44v-164h-113zM337 234q-45 0 -69.5 -12t-24.5 -40q0 -17 10.5 -27.5t29.5 -10.5q26 0 40 22t14 62v6z" />
    <glyph glyph-name="Cacute" unicode="&#x106;" horiz-adv-x="722" 
d="M116.5 82q-102.5 96 -102.5 307q0 403 392 403q95 0 176.5 -23t121.5 -51v-250h-240v72q0 38 -17 56t-51 18t-51 -18t-17 -56v-302q0 -38 17 -56t51 -18t51 18t17 56v81h240v-259q-41 -28 -121.5 -51t-174.5 -23q-189 0 -291.5 96zM276 838v15l109 96h251v-26l-163 -85
h-197z" />
    <glyph glyph-name="cacute" unicode="&#x107;" horiz-adv-x="562" 
d="M94 60.5q-80 74.5 -80 217.5t80 217.5t222 74.5q69 0 132 -19t98 -43v-198h-172v18q0 33 -14 48.5t-44 15.5q-58 0 -58 -64v-86q0 -78 89 -78q83 0 193 18v-157q-34 -15 -95.5 -27t-127.5 -12q-143 0 -223 74.5zM229 616v15l109 152h214v-27l-163 -140h-160z" />
    <glyph glyph-name="Ccircumflex" unicode="&#x108;" horiz-adv-x="722" 
d="M116.5 82q-102.5 96 -102.5 307q0 403 392 403q95 0 176.5 -23t121.5 -51v-250h-240v72q0 38 -17 56t-51 18t-51 -18t-17 -56v-302q0 -38 17 -56t51 -18t51 18t17 56v81h240v-259q-41 -28 -121.5 -51t-174.5 -23q-189 0 -291.5 96zM154 838v15l127 126h250l127 -126v-15
h-154l-93 81h-10l-93 -81h-154z" />
    <glyph glyph-name="ccircumflex" unicode="&#x109;" horiz-adv-x="562" 
d="M94 60.5q-80 74.5 -80 217.5t80 217.5t222 74.5q69 0 132 -19t98 -43v-198h-172v18q0 33 -14 48.5t-44 15.5q-58 0 -58 -64v-86q0 -78 89 -78q83 0 193 18v-157q-34 -15 -95.5 -27t-127.5 -12q-143 0 -223 74.5zM99 616v15l118 152h198l118 -152v-15h-150l-62 65h-10
l-62 -65h-150z" />
    <glyph glyph-name="Cdotaccent" unicode="&#x10a;" horiz-adv-x="722" 
d="M116.5 82q-102.5 96 -102.5 307q0 403 392 403q95 0 176.5 -23t121.5 -51v-250h-240v72q0 38 -17 56t-51 18t-51 -18t-17 -56v-302q0 -38 17 -56t51 -18t51 18t17 56v81h240v-259q-41 -28 -121.5 -51t-174.5 -23q-189 0 -291.5 96zM314 848v127h184v-127h-184z" />
    <glyph glyph-name="cdotaccent" unicode="&#x10b;" horiz-adv-x="562" 
d="M94 60.5q-80 74.5 -80 217.5t80 217.5t222 74.5q69 0 132 -19t98 -43v-198h-172v18q0 33 -14 48.5t-44 15.5q-58 0 -58 -64v-86q0 -78 89 -78q83 0 193 18v-157q-34 -15 -95.5 -27t-127.5 -12q-143 0 -223 74.5zM228 626v167h176v-167h-176z" />
    <glyph glyph-name="Ccaron" unicode="&#x10c;" horiz-adv-x="722" 
d="M116.5 82q-102.5 96 -102.5 307q0 403 392 403q95 0 176.5 -23t121.5 -51v-250h-240v72q0 38 -17 56t-51 18t-51 -18t-17 -56v-302q0 -38 17 -56t51 -18t51 18t17 56v81h240v-259q-41 -28 -121.5 -51t-174.5 -23q-189 0 -291.5 96zM281 838l-127 126v15h154l93 -81h10
l93 81h154v-15l-127 -126h-250z" />
    <glyph glyph-name="ccaron" unicode="&#x10d;" horiz-adv-x="562" 
d="M94 60.5q-80 74.5 -80 217.5t80 217.5t222 74.5q69 0 132 -19t98 -43v-198h-172v18q0 33 -14 48.5t-44 15.5q-58 0 -58 -64v-86q0 -78 89 -78q83 0 193 18v-157q-34 -15 -95.5 -27t-127.5 -12q-143 0 -223 74.5zM217 616l-118 152v15h150l62 -65h10l62 65h150v-15
l-118 -152h-198z" />
    <glyph glyph-name="Dcaron" unicode="&#x10e;" horiz-adv-x="804" 
d="M20 164h50v449h-50v165h406q167 0 265.5 -91.5t98.5 -297.5t-98.5 -297.5t-265.5 -91.5h-406v164zM408 164q34 0 51 18t17 56v302q0 74 -68 74h-58v-450h58zM254 838l-127 126v15h154l93 -81h10l93 81h154v-15l-127 -126h-250z" />
    <glyph glyph-name="dcaron" unicode="&#x10f;" horiz-adv-x="794" 
d="M61.5 62q-51.5 76 -51.5 216t51.5 216t153.5 76q51 0 90.5 -25t64.5 -57v126h-59v164h289v-614h44v-164h-274v68q-25 -32 -64.5 -57t-90.5 -25q-102 0 -153.5 76zM355.5 179.5q14.5 15.5 14.5 48.5v100q0 33 -14.5 48.5t-43.5 15.5t-43.5 -15.5t-14.5 -48.5v-100
q0 -33 14.5 -48.5t43.5 -15.5t43.5 15.5zM637 521v227h154v-27l-34 -200h-120z" />
    <glyph glyph-name="Dcroat" unicode="&#x110;" horiz-adv-x="826" 
d="M709.5 686.5q98.5 -91.5 98.5 -297.5t-98.5 -297.5t-265.5 -91.5h-416v164h60v147h-71v164h71v138h-60v165h416q167 0 265.5 -91.5zM494 540q0 74 -68 74h-58v-139h61v-164h-61v-147h58q34 0 51 18t17 56v302z" />
    <glyph glyph-name="dcroat" unicode="&#x111;" horiz-adv-x="670" 
d="M600 624v-460h44v-164h-274v68q-25 -32 -64.5 -57t-90.5 -25q-102 0 -153.5 76t-51.5 216t51.5 216t153.5 76q51 0 90.5 -25t64.5 -57v136h-169v101h169v53h230v-53h54v-101h-54zM370 328q0 33 -14.5 48.5t-43.5 15.5t-43.5 -15.5t-14.5 -48.5v-100q0 -33 14.5 -48.5
t43.5 -15.5t43.5 15.5t14.5 48.5v100z" />
    <glyph glyph-name="Emacron" unicode="&#x112;" horiz-adv-x="713" 
d="M20 0v164h50v450h-50v164h675v-302h-224v138h-121v-158h88v-114h-88v-178h121v158h224v-322h-675zM204 840v98h358v-98h-358z" />
    <glyph glyph-name="emacron" unicode="&#x113;" horiz-adv-x="594" 
d="M94 60.5q-80 74.5 -80 217.5t80 217.5t222 74.5q141 0 203.5 -73.5t62.5 -182.5v-72h-324v-6q0 -37 22 -54.5t73 -17.5q61 0 116 9t96 23v-160q-35 -19 -102.5 -34.5t-146.5 -15.5q-142 0 -222 74.5zM374 352v12q0 34 -14.5 49t-43.5 15t-43.5 -15.5t-14.5 -48.5v-12h116
zM137 635v118h358v-118h-358z" />
    <glyph glyph-name="Ebreve" unicode="&#x114;" horiz-adv-x="713" 
d="M20 0v164h50v450h-50v164h675v-302h-224v138h-121v-158h88v-114h-88v-178h121v158h224v-322h-675zM227 877q-56 39 -56 108v10h149v-10q0 -45 63 -45t63 45v10h149v-10q0 -69 -56 -108t-156 -39t-156 39z" />
    <glyph glyph-name="ebreve" unicode="&#x115;" horiz-adv-x="594" 
d="M94 60.5q-80 74.5 -80 217.5t80 217.5t222 74.5q141 0 203.5 -73.5t62.5 -182.5v-72h-324v-6q0 -37 22 -54.5t73 -17.5q61 0 116 9t96 23v-160q-35 -19 -102.5 -34.5t-146.5 -15.5q-142 0 -222 74.5zM374 352v12q0 34 -14.5 49t-43.5 15t-43.5 -15.5t-14.5 -48.5v-12h116
zM160 662q-56 44 -56 123v10h149v-10q0 -65 63 -65t63 65v10h149v-10q0 -79 -56 -123t-156 -44t-156 44z" />
    <glyph glyph-name="Edotaccent" unicode="&#x116;" horiz-adv-x="713" 
d="M20 0v164h50v450h-50v164h675v-302h-224v138h-121v-158h88v-114h-88v-178h121v158h224v-322h-675zM291 848v127h184v-127h-184z" />
    <glyph glyph-name="edotaccent" unicode="&#x117;" horiz-adv-x="594" 
d="M94 60.5q-80 74.5 -80 217.5t80 217.5t222 74.5q141 0 203.5 -73.5t62.5 -182.5v-72h-324v-6q0 -37 22 -54.5t73 -17.5q61 0 116 9t96 23v-160q-35 -19 -102.5 -34.5t-146.5 -15.5q-142 0 -222 74.5zM374 352v12q0 34 -14.5 49t-43.5 15t-43.5 -15.5t-14.5 -48.5v-12h116
zM228 626v167h176v-167h-176z" />
    <glyph glyph-name="Eogonek" unicode="&#x118;" horiz-adv-x="713" 
d="M471 476v138h-121v-158h88v-114h-88v-178h121v158h224v-322h-108q-23 -30 -23 -58q0 -27 17 -42.5t47 -15.5q32 0 60 9v-85q-48 -24 -100 -24q-62 0 -97 28.5t-35 80.5q0 28 11.5 56t31.5 51h-479v164h50v450h-50v164h675v-302h-224z" />
    <glyph glyph-name="eogonek" unicode="&#x119;" horiz-adv-x="594" 
d="M258 242v-6q0 -37 22 -54.5t73 -17.5q61 0 116 9t96 23v-160q-31 -17 -88.5 -31.5t-127.5 -17.5q-13 -23 -13 -45q0 -27 17 -42.5t47 -15.5q31 0 60 9v-85q-48 -24 -100 -24q-62 0 -97 28.5t-35 80.5q0 51 34 96q-118 14 -183 87t-65 202q0 143 80 217.5t222 74.5
q141 0 203.5 -73.5t62.5 -182.5v-72h-324zM258 352h116v12q0 34 -14.5 49t-43.5 15t-43.5 -15.5t-14.5 -48.5v-12z" />
    <glyph glyph-name="Ecaron" unicode="&#x11a;" horiz-adv-x="713" 
d="M20 0v164h50v450h-50v164h675v-302h-224v138h-121v-158h88v-114h-88v-178h121v158h224v-322h-675zM258 838l-127 126v15h154l93 -81h10l93 81h154v-15l-127 -126h-250z" />
    <glyph glyph-name="ecaron" unicode="&#x11b;" horiz-adv-x="594" 
d="M94 60.5q-80 74.5 -80 217.5t80 217.5t222 74.5q141 0 203.5 -73.5t62.5 -182.5v-72h-324v-6q0 -37 22 -54.5t73 -17.5q61 0 116 9t96 23v-160q-35 -19 -102.5 -34.5t-146.5 -15.5q-142 0 -222 74.5zM374 352v12q0 34 -14.5 49t-43.5 15t-43.5 -15.5t-14.5 -48.5v-12h116
zM217 616l-118 152v15h150l62 -65h10l62 65h150v-15l-118 -152h-198z" />
    <glyph glyph-name="Gcircumflex" unicode="&#x11c;" horiz-adv-x="782" 
d="M774 250h-50v-200q-44 -25 -128.5 -44.5t-182.5 -19.5q-187 0 -293 98.5t-106 304.5q0 211 105.5 307t301.5 96q95 0 178 -20t125 -45v-239h-250v47q0 42 -17.5 60.5t-55.5 18.5t-55.5 -18.5t-17.5 -60.5v-292q0 -42 17.5 -60.5t55.5 -18.5t55.5 18.5t17.5 60.5v7h-54
v149h354v-149zM169 838v15l127 126h250l127 -126v-15h-154l-93 81h-10l-93 -81h-154z" />
    <glyph glyph-name="gcircumflex" unicode="&#x11d;" horiz-adv-x="654" 
d="M173.5 -226q-65.5 10 -101.5 23v164q106 -19 190 -19q57 0 82.5 17.5t25.5 65.5v43q-25 -32 -64.5 -57t-90.5 -25q-102 0 -153.5 76t-51.5 216t51.5 216t153.5 76q51 0 90.5 -25t64.5 -57v68h274v-164h-44v-352q0 -145 -72 -210.5t-217 -65.5q-72 0 -137.5 10z
M355.5 179.5q14.5 15.5 14.5 48.5v100q0 33 -14.5 48.5t-43.5 15.5t-43.5 -15.5t-14.5 -48.5v-100q0 -33 14.5 -48.5t43.5 -15.5t43.5 15.5zM125 616v15l118 152h198l118 -152v-15h-150l-62 65h-10l-62 -65h-150z" />
    <glyph glyph-name="Gbreve" unicode="&#x11e;" horiz-adv-x="782" 
d="M774 250h-50v-200q-44 -25 -128.5 -44.5t-182.5 -19.5q-187 0 -293 98.5t-106 304.5q0 211 105.5 307t301.5 96q95 0 178 -20t125 -45v-239h-250v47q0 42 -17.5 60.5t-55.5 18.5t-55.5 -18.5t-17.5 -60.5v-292q0 -42 17.5 -60.5t55.5 -18.5t55.5 18.5t17.5 60.5v7h-54
v149h354v-149zM265 877q-56 39 -56 108v10h149v-10q0 -45 63 -45t63 45v10h149v-10q0 -69 -56 -108t-156 -39t-156 39z" />
    <glyph glyph-name="gbreve" unicode="&#x11f;" horiz-adv-x="654" 
d="M173.5 -226q-65.5 10 -101.5 23v164q106 -19 190 -19q57 0 82.5 17.5t25.5 65.5v43q-25 -32 -64.5 -57t-90.5 -25q-102 0 -153.5 76t-51.5 216t51.5 216t153.5 76q51 0 90.5 -25t64.5 -57v68h274v-164h-44v-352q0 -145 -72 -210.5t-217 -65.5q-72 0 -137.5 10z
M355.5 179.5q14.5 15.5 14.5 48.5v100q0 33 -14.5 48.5t-43.5 15.5t-43.5 -15.5t-14.5 -48.5v-100q0 -33 14.5 -48.5t43.5 -15.5t43.5 15.5zM186 662q-56 44 -56 123v10h149v-10q0 -65 63 -65t63 65v10h149v-10q0 -79 -56 -123t-156 -44t-156 44z" />
    <glyph glyph-name="Gdotaccent" unicode="&#x120;" horiz-adv-x="782" 
d="M774 250h-50v-200q-44 -25 -128.5 -44.5t-182.5 -19.5q-187 0 -293 98.5t-106 304.5q0 211 105.5 307t301.5 96q95 0 178 -20t125 -45v-239h-250v47q0 42 -17.5 60.5t-55.5 18.5t-55.5 -18.5t-17.5 -60.5v-292q0 -42 17.5 -60.5t55.5 -18.5t55.5 18.5t17.5 60.5v7h-54
v149h354v-149zM329 848v127h184v-127h-184z" />
    <glyph glyph-name="gdotaccent" unicode="&#x121;" horiz-adv-x="654" 
d="M173.5 -226q-65.5 10 -101.5 23v164q106 -19 190 -19q57 0 82.5 17.5t25.5 65.5v43q-25 -32 -64.5 -57t-90.5 -25q-102 0 -153.5 76t-51.5 216t51.5 216t153.5 76q51 0 90.5 -25t64.5 -57v68h274v-164h-44v-352q0 -145 -72 -210.5t-217 -65.5q-72 0 -137.5 10z
M355.5 179.5q14.5 15.5 14.5 48.5v100q0 33 -14.5 48.5t-43.5 15.5t-43.5 -15.5t-14.5 -48.5v-100q0 -33 14.5 -48.5t43.5 -15.5t43.5 15.5zM254 626v167h176v-167h-176z" />
    <glyph glyph-name="Gcommaaccent" unicode="&#x122;" horiz-adv-x="782" 
d="M774 250h-50v-200q-44 -25 -128.5 -44.5t-182.5 -19.5q-187 0 -293 98.5t-106 304.5q0 211 105.5 307t301.5 96q95 0 178 -20t125 -45v-239h-250v47q0 42 -17.5 60.5t-55.5 18.5t-55.5 -18.5t-17.5 -60.5v-292q0 -42 17.5 -60.5t55.5 -18.5t55.5 18.5t17.5 60.5v7h-54
v149h354v-149zM348 -315l32 113h-41v142h150v-142l-55 -113h-86z" />
    <glyph glyph-name="gcommaaccent" unicode="&#x123;" horiz-adv-x="654" 
d="M173.5 -226q-65.5 10 -101.5 23v164q106 -19 190 -19q57 0 82.5 17.5t25.5 65.5v43q-25 -32 -64.5 -57t-90.5 -25q-102 0 -153.5 76t-51.5 216t51.5 216t153.5 76q51 0 90.5 -25t64.5 -57v68h274v-164h-44v-352q0 -145 -72 -210.5t-217 -65.5q-72 0 -137.5 10z
M355.5 179.5q14.5 15.5 14.5 48.5v100q0 33 -14.5 48.5t-43.5 15.5t-43.5 -15.5t-14.5 -48.5v-100q0 -33 14.5 -48.5t43.5 -15.5t43.5 15.5zM266 616v132l55 113h86l-32 -113h41v-132h-150z" />
    <glyph glyph-name="Hcircumflex" unicode="&#x124;" horiz-adv-x="840" 
d="M820 614h-50v-450h50v-164h-378v164h48v165h-140v-165h48v-164h-378v164h50v450h-50v164h378v-164h-48v-152h140v152h-48v164h378v-164zM168 838v15l127 126h250l127 -126v-15h-154l-93 81h-10l-93 -81h-154z" />
    <glyph glyph-name="hcircumflex" unicode="&#x125;" horiz-adv-x="696" 
d="M682 164v-164h-316v164h42v164q0 33 -14 48.5t-42 15.5q-60 0 -60 -64v-164h42v-164h-316v164h44v450h-44v164h274v-300q37 46 80 69t100 23q83 0 124.5 -52t41.5 -143v-211h44zM-95 838v15l127 126h250l127 -126v-15h-154l-93 81h-10l-93 -81h-154z" />
    <glyph glyph-name="Hbar" unicode="&#x126;" horiz-adv-x="840" 
d="M820 614h-50v-80h50v-101h-50v-269h50v-164h-378v164h48v85h-140v-85h48v-164h-378v164h50v269h-50v101h50v80h-50v164h378v-164h-48v-80h140v80h-48v164h378v-164zM490 363v70h-140v-70h140z" />
    <glyph glyph-name="hbar" unicode="&#x127;" horiz-adv-x="692" 
d="M682 164v-164h-318v164h44v164q0 33 -14.5 48.5t-43.5 15.5t-43.5 -15.5t-14.5 -48.5v-164h44v-164h-318v164h44v460h-54v101h54v53h230v-53h169v-101h-169v-136q25 25 44.5 41t51.5 28.5t73 12.5q84 0 130.5 -60t46.5 -182v-164h44z" />
    <glyph glyph-name="Itilde" unicode="&#x128;" horiz-adv-x="420" 
d="M20 0v164h50v450h-50v164h380v-164h-50v-450h50v-164h-380zM266.5 843q-28.5 5 -68.5 15q-42 9 -66 13.5t-48 4.5q-26 0 -43 -10.5t-17 -26.5h-56q0 84 27.5 120.5t102.5 36.5q33 0 63 -5t70 -15q38 -8 60 -12t45 -4q28 0 44 9t16 26h56q0 -56 -11 -89.5t-39 -50.5
t-80 -17q-27 0 -55.5 5z" />
    <glyph glyph-name="itilde" unicode="&#x129;" horiz-adv-x="346" 
d="M18 0v164h44v228h-44v164h274v-392h44v-164h-318zM208 623q-28 7 -65 20q-31 11 -51.5 16t-39.5 5t-30.5 -10t-11.5 -27h-56q0 86 25.5 128.5t94.5 42.5q31 0 56.5 -6.5t60.5 -18.5q30 -11 50 -16t41 -5q22 0 32 10.5t10 24.5h56q0 -87 -22.5 -129t-90.5 -42q-31 0 -59 7
z" />
    <glyph glyph-name="Imacron" unicode="&#x12a;" horiz-adv-x="420" 
d="M20 0v164h50v450h-50v164h380v-164h-50v-450h50v-164h-380zM31 840v98h358v-98h-358z" />
    <glyph glyph-name="imacron" unicode="&#x12b;" horiz-adv-x="346" 
d="M18 0v164h44v228h-44v164h274v-392h44v-164h-318zM-12 635v118h358v-118h-358z" />
    <glyph glyph-name="Ibreve" unicode="&#x12c;" horiz-adv-x="420" 
d="M20 0v164h50v450h-50v164h380v-164h-50v-450h50v-164h-380zM54 877q-56 39 -56 108v10h149v-10q0 -45 63 -45t63 45v10h149v-10q0 -69 -56 -108t-156 -39t-156 39z" />
    <glyph glyph-name="ibreve" unicode="&#x12d;" horiz-adv-x="346" 
d="M18 0v164h44v228h-44v164h274v-392h44v-164h-318zM11 662q-56 44 -56 123v10h149v-10q0 -65 63 -65t63 65v10h149v-10q0 -79 -56 -123t-156 -44t-156 44z" />
    <glyph glyph-name="Iogonek" unicode="&#x12e;" horiz-adv-x="420" 
d="M350 614v-450h50v-164h-144q-23 -30 -23 -58q0 -27 17 -42.5t47 -15.5q32 0 60 9v-85q-48 -24 -100 -24q-62 0 -97 28.5t-35 80.5q0 28 11.5 56t31.5 51h-148v164h50v450h-50v164h380v-164h-50z" />
    <glyph glyph-name="iogonek" unicode="&#x12f;" horiz-adv-x="346" 
d="M270 778v-167h-204v167h204zM212 0q-22 -27 -22 -57q0 -27 17 -42.5t47 -15.5q31 0 60 9v-85q-48 -24 -100 -24q-62 0 -97 28.5t-35 80.5q0 28 11.5 55.5t30.5 50.5h-106v164h44v228h-44v164h274v-392h44v-164h-124z" />
    <glyph glyph-name="Idotaccent" unicode="&#x130;" horiz-adv-x="420" 
d="M20 0v164h50v450h-50v164h380v-164h-50v-450h50v-164h-380zM118 848v127h184v-127h-184z" />
    <glyph glyph-name="dotlessi" unicode="&#x131;" horiz-adv-x="346" 
d="M18 0v164h44v228h-44v164h274v-392h44v-164h-318z" />
    <glyph glyph-name="IJ" unicode="&#x132;" horiz-adv-x="802" 
d="M165.5 1.5q-86.5 15.5 -145.5 39.5v196h244v-10q0 -32 21 -47.5t69 -15.5h30q49 0 69.5 23.5t20.5 77.5v349h-50v164h360v-164h-50v-315q0 -313 -389 -313q-93 0 -179.5 15.5zM20 270v164h50v180h-50v164h360v-164h-50v-180h50v-164h-360z" />
    <glyph glyph-name="ij" unicode="&#x133;" horiz-adv-x="659" 
d="M66 611v167h204v-167h-204zM18 0v164h44v228h-44v164h274v-392h44v-164h-318zM407 611v167h204v-167h-204zM315.5 -229q-43.5 7 -73.5 15v163q47 -7 84 -7q77 0 77 72v378h-67v164h297v-522q0 -137 -58 -203.5t-175 -66.5q-41 0 -84.5 7z" />
    <glyph glyph-name="Jcircumflex" unicode="&#x134;" horiz-adv-x="666" 
d="M127 3.5q-69 17.5 -115 48.5v176h200v-10q0 -54 52 -54q27 0 40.5 14.5t13.5 45.5v390h-90v164h420v-164h-50v-336q0 -147 -86 -219.5t-239 -72.5q-77 0 -146 17.5zM206 838v15l127 126h250l127 -126v-15h-154l-93 81h-10l-93 -81h-154z" />
    <glyph glyph-name="jcircumflex" unicode="&#x135;" horiz-adv-x="313" 
d="M-30.5 -229q-43.5 7 -73.5 15v163q47 -7 84 -7q77 0 77 72v378h-67v164h297v-522q0 -137 -58 -203.5t-175 -66.5q-41 0 -84.5 7zM-45 616v15l118 152h198l118 -152v-15h-150l-62 65h-10l-62 -65h-150z" />
    <glyph glyph-name="Kcommaaccent" unicode="&#x136;" horiz-adv-x="835" 
d="M769 164h50v-164h-273l-150 310l-46 -38v-108h48v-164h-378v164h50v450h-50v164h378v-164h-48v-132l155 132h-63v164h372v-164h-50l-167 -138zM355 -315l32 113h-41v142h150v-142l-55 -113h-86z" />
    <glyph glyph-name="kcommaaccent" unicode="&#x137;" horiz-adv-x="678" 
d="M621 164h43v-164h-245l-103 192h-24v-192h-274v164h44v450h-44v164h274v-406h24l124 184h211v-164h-41l-85 -95zM271 -315l32 113h-41v142h150v-142l-55 -113h-86z" />
    <glyph glyph-name="kgreenlandic" unicode="&#x138;" horiz-adv-x="674" 
d="M621 164h43v-164h-245l-103 192h-24v-192h-274v164h44v228h-44v164h274v-184h24l124 184h211v-164h-41l-85 -95z" />
    <glyph glyph-name="Lacute" unicode="&#x139;" horiz-adv-x="653" 
d="M20 0v164h50v450h-50v164h422v-164h-92v-450h90v92h199v-256h-619zM80 838v15l109 96h251v-26l-163 -85h-197z" />
    <glyph glyph-name="lacute" unicode="&#x13a;" horiz-adv-x="350" 
d="M18 -1v165h44v450h-44v164h274v-614h44v-165h-318zM47 838v15l109 96h251v-26l-163 -85h-197z" />
    <glyph glyph-name="Lcommaaccent" unicode="&#x13b;" horiz-adv-x="653" 
d="M20 0v164h50v450h-50v164h422v-164h-92v-450h90v92h199v-256h-619zM261 -315l32 113h-41v142h150v-142l-55 -113h-86z" />
    <glyph glyph-name="lcommaaccent" unicode="&#x13c;" horiz-adv-x="350" 
d="M18 -1v165h44v450h-44v164h274v-614h44v-165h-318zM111 -315l32 113h-41v142h150v-142l-55 -113h-86z" />
    <glyph glyph-name="Lcaron" unicode="&#x13d;" horiz-adv-x="657" 
d="M20 0v164h50v450h-50v164h422v-164h-92v-450h90v92h199v-256h-619zM485 551v227h154v-27l-34 -200h-120z" />
    <glyph glyph-name="lcaron" unicode="&#x13e;" horiz-adv-x="494" 
d="M18 -1v165h44v450h-44v164h274v-614h44v-165h-318zM330 521v227h154v-27l-34 -200h-120z" />
    <glyph glyph-name="Ldot" unicode="&#x13f;" horiz-adv-x="653" 
d="M20 0v164h50v450h-50v164h422v-164h-92v-450h90v92h199v-256h-619zM456 364v162h166v-162h-166z" />
    <glyph glyph-name="ldot" unicode="&#x140;" horiz-adv-x="506" 
d="M18 -1v165h44v450h-44v164h274v-614h44v-165h-318zM347 350v162h166v-162h-166z" />
    <glyph glyph-name="Lslash" unicode="&#x141;" horiz-adv-x="671" 
d="M440 256h199v-256h-619v164h50v80l-60 -22h-20v121l80 29v242h-50v164h422v-164h-92v-141l221 80h20v-121l-241 -87v-181h90v92z" />
    <glyph glyph-name="lslash" unicode="&#x142;" horiz-adv-x="372" 
d="M385 472l-75 -48v-260h44v-165h-318v165h44v113l-55 -35h-20v121l75 48v203h-44v164h274v-220l55 35h20v-121z" />
    <glyph glyph-name="Nacute" unicode="&#x143;" horiz-adv-x="942" 
d="M596 778h328v-164h-50v-614h-281l-293 451v-287h48v-164h-328v164h50v450h-50v164h361l263 -401v237h-48v164zM351 838v15l109 96h251v-26l-163 -85h-197z" />
    <glyph glyph-name="nacute" unicode="&#x144;" horiz-adv-x="696" 
d="M682 164v-164h-316v164h42v164q0 33 -14 48.5t-42 15.5q-60 0 -60 -64v-164h42v-164h-316v164h44v228h-44v164h274v-78q72 92 180 92q83 0 124.5 -52t41.5 -143v-211h44zM264 616v15l109 152h214v-27l-163 -140h-160z" />
    <glyph glyph-name="Ncommaaccent" unicode="&#x145;" horiz-adv-x="942" 
d="M596 778h328v-164h-50v-614h-281l-293 451v-287h48v-164h-328v164h50v450h-50v164h361l263 -401v237h-48v164zM407 -315l32 113h-41v142h150v-142l-55 -113h-86z" />
    <glyph glyph-name="ncommaaccent" unicode="&#x146;" horiz-adv-x="696" 
d="M682 164v-164h-316v164h42v164q0 33 -14 48.5t-42 15.5q-60 0 -60 -64v-164h42v-164h-316v164h44v228h-44v164h274v-78q72 92 180 92q83 0 124.5 -52t41.5 -143v-211h44zM284 -314l32 113h-41v142h150v-142l-55 -113h-86z" />
    <glyph glyph-name="Ncaron" unicode="&#x147;" horiz-adv-x="942" 
d="M596 778h328v-164h-50v-614h-281l-293 451v-287h48v-164h-328v164h50v450h-50v164h361l263 -401v237h-48v164zM356 838l-127 126v15h154l93 -81h10l93 81h154v-15l-127 -126h-250z" />
    <glyph glyph-name="ncaron" unicode="&#x148;" horiz-adv-x="696" 
d="M682 164v-164h-316v164h42v164q0 33 -14 48.5t-42 15.5q-60 0 -60 -64v-164h42v-164h-316v164h44v228h-44v164h274v-78q72 92 180 92q83 0 124.5 -52t41.5 -143v-211h44zM252 616l-118 152v15h150l62 -65h10l62 65h150v-15l-118 -152h-198z" />
    <glyph glyph-name="napostrophe" unicode="&#x149;" horiz-adv-x="856" 
d="M15 533l32 113h-41v132h150v-132l-55 -113h-86zM842 164v-164h-316v164h42v164q0 33 -14 48.5t-42 15.5q-60 0 -60 -64v-164h42v-164h-316v164h44v228h-44v164h274v-78q72 92 180 92q83 0 124.5 -52t41.5 -143v-211h44z" />
    <glyph glyph-name="Eng" unicode="&#x14a;" horiz-adv-x="796" 
d="M718 723q48 -69 48 -198v-433q0 -164 -86.5 -249t-249.5 -85q-110 0 -207 34v148q69 -20 128 -20q68 0 101.5 31t33.5 96v428q0 38 -16.5 56t-50.5 18t-51.5 -18t-17.5 -56v-475h-330v164h50v450h-50v164h330v-103q40 56 90 86.5t115 30.5q115 0 163 -69z" />
    <glyph glyph-name="eng" unicode="&#x14b;" horiz-adv-x="656" 
d="M596.5 518q41.5 -52 41.5 -143v-343q0 -141 -64.5 -207.5t-191.5 -66.5q-106 0 -209 31v137q66 -17 134 -17q101 0 101 91v328q0 33 -14 48.5t-42 15.5q-60 0 -60 -64v-328h-274v164h44v228h-44v164h274v-78q72 92 180 92q83 0 124.5 -52z" />
    <glyph glyph-name="Omacron" unicode="&#x14c;" horiz-adv-x="792" 
d="M113.5 82q-99.5 96 -99.5 307t99.5 307t282.5 96t282.5 -96t99.5 -307t-99.5 -307t-282.5 -96t-282.5 96zM447 182q17 18 17 56v302q0 38 -17 56t-51 18t-51 -18t-17 -56v-302q0 -39 17 -56.5t51 -17.5t51 18zM217 840v98h358v-98h-358z" />
    <glyph glyph-name="omacron" unicode="&#x14d;" horiz-adv-x="632" 
d="M94 60.5q-80 74.5 -80 217.5t80 217.5t222 74.5q144 0 223 -75.5t79 -216.5q0 -143 -80 -217.5t-222 -74.5t-222 74.5zM359.5 179.5q14.5 15.5 14.5 48.5v100q0 33 -14.5 48.5t-43.5 15.5t-43.5 -15.5t-14.5 -48.5v-100q0 -33 14.5 -48.5t43.5 -15.5t43.5 15.5zM137 635
v118h358v-118h-358z" />
    <glyph glyph-name="Obreve" unicode="&#x14e;" horiz-adv-x="792" 
d="M113.5 82q-99.5 96 -99.5 307t99.5 307t282.5 96t282.5 -96t99.5 -307t-99.5 -307t-282.5 -96t-282.5 96zM447 182q17 18 17 56v302q0 38 -17 56t-51 18t-51 -18t-17 -56v-302q0 -39 17 -56.5t51 -17.5t51 18zM240 877q-56 39 -56 108v10h149v-10q0 -45 63 -45t63 45v10
h149v-10q0 -69 -56 -108t-156 -39t-156 39z" />
    <glyph glyph-name="obreve" unicode="&#x14f;" horiz-adv-x="632" 
d="M94 60.5q-80 74.5 -80 217.5t80 217.5t222 74.5q144 0 223 -75.5t79 -216.5q0 -143 -80 -217.5t-222 -74.5t-222 74.5zM359.5 179.5q14.5 15.5 14.5 48.5v100q0 33 -14.5 48.5t-43.5 15.5t-43.5 -15.5t-14.5 -48.5v-100q0 -33 14.5 -48.5t43.5 -15.5t43.5 15.5zM160 662
q-56 44 -56 123v10h149v-10q0 -65 63 -65t63 65v10h149v-10q0 -79 -56 -123t-156 -44t-156 44z" />
    <glyph glyph-name="Ohungarumlaut" unicode="&#x150;" horiz-adv-x="792" 
d="M113.5 82q-99.5 96 -99.5 307t99.5 307t282.5 96t282.5 -96t99.5 -307t-99.5 -307t-282.5 -96t-282.5 96zM447 182q17 18 17 56v302q0 38 -17 56t-51 18t-51 -18t-17 -56v-302q0 -39 17 -56.5t51 -17.5t51 18zM207 838v15l49 152h184v-27l-113 -140h-120zM435 838v15
l49 152h184v-27l-113 -140h-120z" />
    <glyph glyph-name="ohungarumlaut" unicode="&#x151;" horiz-adv-x="632" 
d="M94 60.5q-80 74.5 -80 217.5t80 217.5t222 74.5q144 0 223 -75.5t79 -216.5q0 -143 -80 -217.5t-222 -74.5t-222 74.5zM359.5 179.5q14.5 15.5 14.5 48.5v100q0 33 -14.5 48.5t-43.5 15.5t-43.5 -15.5t-14.5 -48.5v-100q0 -33 14.5 -48.5t43.5 -15.5t43.5 15.5zM127 616
v15l49 152h184v-27l-113 -140h-120zM355 616v15l49 152h184v-27l-113 -140h-120z" />
    <glyph glyph-name="OE" unicode="&#x152;" horiz-adv-x="1107" 
d="M865 476v138h-121v-158h88v-114h-88v-178h121v158h224v-322h-562q-56 -14 -131 -14q-183 0 -282.5 96t-99.5 307t99.5 307t282.5 96q74 0 130 -14h563v-302h-224zM348 182q20 -18 61 -18q28 0 55 10v430q-27 10 -55 10q-41 0 -61 -17.5t-20 -56.5v-302q0 -38 20 -56z" />
    <glyph glyph-name="oe" unicode="&#x153;" horiz-adv-x="948" 
d="M612 242v-6q0 -37 22 -54.5t73 -17.5q61 0 116 9t96 23v-160q-35 -19 -102.5 -34.5t-146.5 -15.5q-106 0 -177 53q-71 -53 -177 -53q-142 0 -222 74.5t-80 217.5t80 217.5t222 74.5q108 0 177 -51q71 51 177 51q141 0 203.5 -73.5t62.5 -182.5v-72h-324zM612 352h116v12
q0 34 -14.5 49t-43.5 15t-43.5 -15.5t-14.5 -48.5v-12zM374 328q0 33 -14.5 48.5t-43.5 15.5t-43.5 -15.5t-14.5 -48.5v-100q0 -33 14.5 -48.5t43.5 -15.5t43.5 15.5t14.5 48.5v100z" />
    <glyph glyph-name="Racute" unicode="&#x154;" horiz-adv-x="800" 
d="M20 164h50v450h-50v164h459q129 0 197 -53t68 -172q0 -67 -27 -116t-77 -68l1 -10q96 -15 96 -118v-77h47v-164h-317v235q0 39 -11.5 59t-36 27t-69.5 7v-164h66v-164h-396v164zM404 450q29 0 43.5 15.5t14.5 48.5v36q0 33 -14.5 48.5t-43.5 15.5h-54v-164h54zM247 838
v15l109 96h251v-26l-163 -85h-197z" />
    <glyph glyph-name="racute" unicode="&#x155;" horiz-adv-x="527" 
d="M483 566q18 -4 30 -10v-191q-41 17 -88 17q-63 0 -97 -33t-34 -98v-87h90v-164h-364v164h44v228h-44v164h274v-73q28 42 64 64.5t87 22.5q20 0 38 -4zM172 616v15l109 152h214v-27l-163 -140h-160z" />
    <glyph glyph-name="Rcommaaccent" unicode="&#x156;" horiz-adv-x="800" 
d="M20 164h50v450h-50v164h459q129 0 197 -53t68 -172q0 -67 -27 -116t-77 -68l1 -10q96 -15 96 -118v-77h47v-164h-317v235q0 39 -11.5 59t-36 27t-69.5 7v-164h66v-164h-396v164zM404 450q29 0 43.5 15.5t14.5 48.5v36q0 33 -14.5 48.5t-43.5 15.5h-54v-164h54zM350 -315
l32 113h-41v142h150v-142l-55 -113h-86z" />
    <glyph glyph-name="rcommaaccent" unicode="&#x157;" horiz-adv-x="527" 
d="M483 566q18 -4 30 -10v-191q-41 17 -88 17q-63 0 -97 -33t-34 -98v-87h90v-164h-364v164h44v228h-44v164h274v-73q28 42 64 64.5t87 22.5q20 0 38 -4zM135 -315l32 113h-41v142h150v-142l-55 -113h-86z" />
    <glyph glyph-name="Rcaron" unicode="&#x158;" horiz-adv-x="800" 
d="M20 164h50v450h-50v164h459q129 0 197 -53t68 -172q0 -67 -27 -116t-77 -68l1 -10q96 -15 96 -118v-77h47v-164h-317v235q0 39 -11.5 59t-36 27t-69.5 7v-164h66v-164h-396v164zM404 450q29 0 43.5 15.5t14.5 48.5v36q0 33 -14.5 48.5t-43.5 15.5h-54v-164h54zM252 838
l-127 126v15h154l93 -81h10l93 81h154v-15l-127 -126h-250z" />
    <glyph glyph-name="rcaron" unicode="&#x159;" horiz-adv-x="527" 
d="M483 566q18 -4 30 -10v-191q-41 17 -88 17q-63 0 -97 -33t-34 -98v-87h90v-164h-364v164h44v228h-44v164h274v-73q28 42 64 64.5t87 22.5q20 0 38 -4zM160 616l-118 152v15h150l62 -65h10l62 65h150v-15l-118 -152h-198z" />
    <glyph glyph-name="Sacute" unicode="&#x15a;" horiz-adv-x="674" 
d="M148.5 2.5q-85.5 16.5 -131.5 37.5v198h220q0 -31 14 -45t51 -14q31 0 44.5 9.5t13.5 28.5q0 16 -13 27.5t-45 23.5l-86 30q-111 42 -159.5 99t-48.5 154q0 118 77.5 179.5t258.5 61.5q87 0 163.5 -17.5t123.5 -46.5v-179h-200q0 50 -62 50q-30 0 -42.5 -7.5t-12.5 -26.5
q0 -17 14.5 -27t47.5 -21l87 -30q106 -36 154.5 -93.5t48.5 -150.5q0 -127 -85.5 -192t-250.5 -65q-96 0 -181.5 16.5zM214 838v15l109 96h251v-26l-163 -85h-197z" />
    <glyph glyph-name="sacute" unicode="&#x15b;" horiz-adv-x="519" 
d="M18 26v148h162v-10q0 -48 61 -48q54 0 54 37q0 20 -15.5 30t-54.5 17l-50 9q-157 28 -157 178q0 87 66 135t178 48q125 0 211 -42v-139h-152v10q0 20 -13.5 30.5t-39.5 10.5q-50 0 -50 -32q0 -17 14 -26t51 -17l57 -11q89 -17 127 -63t38 -118q0 -91 -63.5 -139
t-180.5 -48q-126 0 -243 40zM165 616v15l109 152h214v-27l-163 -140h-160z" />
    <glyph glyph-name="Scircumflex" unicode="&#x15c;" horiz-adv-x="674" 
d="M148.5 2.5q-85.5 16.5 -131.5 37.5v198h220q0 -31 14 -45t51 -14q31 0 44.5 9.5t13.5 28.5q0 16 -13 27.5t-45 23.5l-86 30q-111 42 -159.5 99t-48.5 154q0 118 77.5 179.5t258.5 61.5q87 0 163.5 -17.5t123.5 -46.5v-179h-200q0 50 -62 50q-30 0 -42.5 -7.5t-12.5 -26.5
q0 -17 14.5 -27t47.5 -21l87 -30q106 -36 154.5 -93.5t48.5 -150.5q0 -127 -85.5 -192t-250.5 -65q-96 0 -181.5 16.5zM92 838v15l127 126h250l127 -126v-15h-154l-93 81h-10l-93 -81h-154z" />
    <glyph glyph-name="scircumflex" unicode="&#x15d;" horiz-adv-x="519" 
d="M18 26v148h162v-10q0 -48 61 -48q54 0 54 37q0 20 -15.5 30t-54.5 17l-50 9q-157 28 -157 178q0 87 66 135t178 48q125 0 211 -42v-139h-152v10q0 20 -13.5 30.5t-39.5 10.5q-50 0 -50 -32q0 -17 14 -26t51 -17l57 -11q89 -17 127 -63t38 -118q0 -91 -63.5 -139
t-180.5 -48q-126 0 -243 40zM35 616v15l118 152h198l118 -152v-15h-150l-62 65h-10l-62 -65h-150z" />
    <glyph glyph-name="Scedilla" unicode="&#x15e;" horiz-adv-x="674" 
d="M592.5 60.5q-73.5 -64.5 -215.5 -73.5v-26q45 0 73 -24t28 -70q0 -54 -37.5 -83.5t-103.5 -29.5q-57 0 -123 18v71q61 -14 112 -14q17 0 25.5 9t8.5 23t-8.5 23t-25.5 9h-44v94q-82 4 -153.5 19.5t-111.5 33.5v198h220q0 -31 14 -45t51 -14q31 0 44.5 9.5t13.5 28.5
q0 16 -13 27.5t-45 23.5l-86 30q-111 42 -159.5 99t-48.5 154q0 118 77.5 179.5t258.5 61.5q87 0 163.5 -17.5t123.5 -46.5v-179h-200q0 50 -62 50q-30 0 -42.5 -7.5t-12.5 -26.5q0 -17 14.5 -27t47.5 -21l87 -30q106 -36 154.5 -93.5t48.5 -150.5q0 -118 -73.5 -182.5z" />
    <glyph glyph-name="scedilla" unicode="&#x15f;" horiz-adv-x="519" 
d="M451.5 42q-53.5 -47 -152.5 -55v-26q45 0 73 -24t28 -70q0 -54 -37.5 -83.5t-103.5 -29.5q-57 0 -123 18v71q61 -14 112 -14q17 0 25.5 9t8.5 23t-8.5 23t-25.5 9h-44v95q-94 7 -186 38v148h162v-10q0 -48 61 -48q54 0 54 37q0 20 -15.5 30t-54.5 17l-50 9
q-157 28 -157 178q0 87 66 135t178 48q125 0 211 -42v-139h-152v10q0 20 -13.5 30.5t-39.5 10.5q-50 0 -50 -32q0 -17 14 -26t51 -17l57 -11q89 -17 127 -63t38 -118q0 -84 -53.5 -131z" />
    <glyph glyph-name="Scaron" unicode="&#x160;" horiz-adv-x="674" 
d="M148.5 2.5q-85.5 16.5 -131.5 37.5v198h220q0 -31 14 -45t51 -14q31 0 44.5 9.5t13.5 28.5q0 16 -13 27.5t-45 23.5l-86 30q-111 42 -159.5 99t-48.5 154q0 118 77.5 179.5t258.5 61.5q87 0 163.5 -17.5t123.5 -46.5v-179h-200q0 50 -62 50q-30 0 -42.5 -7.5t-12.5 -26.5
q0 -17 14.5 -27t47.5 -21l87 -30q106 -36 154.5 -93.5t48.5 -150.5q0 -127 -85.5 -192t-250.5 -65q-96 0 -181.5 16.5zM219 838l-127 126v15h154l93 -81h10l93 81h154v-15l-127 -126h-250z" />
    <glyph glyph-name="scaron" unicode="&#x161;" horiz-adv-x="519" 
d="M18 26v148h162v-10q0 -48 61 -48q54 0 54 37q0 20 -15.5 30t-54.5 17l-50 9q-157 28 -157 178q0 87 66 135t178 48q125 0 211 -42v-139h-152v10q0 20 -13.5 30.5t-39.5 10.5q-50 0 -50 -32q0 -17 14 -26t51 -17l57 -11q89 -17 127 -63t38 -118q0 -91 -63.5 -139
t-180.5 -48q-126 0 -243 40zM153 616l-118 152v15h150l62 -65h10l62 65h150v-15l-118 -152h-198z" />
    <glyph glyph-name="uni0162" unicode="&#x162;" horiz-adv-x="780" 
d="M766 536h-172v78h-64v-450h70v-164h-420v164h70v450h-64v-78h-172v242h752v-242zM275 -228v71q61 -14 112 -14q17 0 25.5 9t8.5 23t-8.5 23t-25.5 9h-44v107h95v-39q45 0 73 -24t28 -70q0 -54 -37.5 -83.5t-103.5 -29.5q-57 0 -123 18z" />
    <glyph glyph-name="uni0163" unicode="&#x163;" horiz-adv-x="451" 
d="M374.5 -1.5q-38.5 -8.5 -80.5 -11.5v-26q45 0 73 -24t28 -70q0 -54 -37.5 -83.5t-103.5 -29.5q-57 0 -123 18v71q61 -14 112 -14q17 0 25.5 9t8.5 23t-8.5 23t-25.5 9h-44v98q-73 14 -110 66t-37 154v181h-44v164q38 0 57 19.5t19 53.5v45h212v-118h135v-164h-135v-164
q0 -33 14.5 -48.5t43.5 -15.5q38 0 83 9v-157q-24 -9 -62.5 -17.5z" />
    <glyph glyph-name="Tcaron" unicode="&#x164;" horiz-adv-x="780" 
d="M766 536h-172v78h-64v-450h70v-164h-420v164h70v450h-64v-78h-172v242h752v-242zM265 838l-127 126v15h154l93 -81h10l93 81h154v-15l-127 -126h-250z" />
    <glyph glyph-name="tcaron" unicode="&#x165;" horiz-adv-x="494" 
d="M105.5 37.5q-53.5 51.5 -53.5 173.5v181h-44v164q38 0 57 19.5t19 53.5v45h212v-118h135v-164h-135v-164q0 -33 14.5 -48.5t43.5 -15.5q38 0 83 9v-157q-28 -11 -75.5 -20.5t-96.5 -9.5q-106 0 -159.5 51.5zM334 592v227h154v-27l-34 -200h-120z" />
    <glyph glyph-name="Tbar" unicode="&#x166;" horiz-adv-x="780" 
d="M766 536h-172v78h-64v-180h150v-131h-150v-139h70v-164h-420v164h70v139h-150v131h150v180h-64v-78h-172v242h752v-242z" />
    <glyph glyph-name="tbar" unicode="&#x167;" horiz-adv-x="451" 
d="M437 173v-157q-28 -11 -75.5 -20.5t-96.5 -9.5q-106 0 -159.5 51.5t-53.5 173.5v20h-44v101h44v60h-44v164q38 0 57 19.5t19 53.5v45h212v-118h135v-164h-135v-60h135v-101h-135v-3q0 -33 14.5 -48.5t43.5 -15.5q38 0 83 9z" />
    <glyph glyph-name="Utilde" unicode="&#x168;" horiz-adv-x="781" 
d="M151.5 55q-85.5 69 -85.5 224v335h-50v164h370v-164h-40v-386q0 -33 14.5 -48.5t43.5 -15.5t43.5 15.5t14.5 48.5v386h-40v164h343v-164h-50v-335q0 -155 -83 -224t-238 -69q-157 0 -242.5 69zM458.5 843q-28.5 5 -68.5 15q-42 9 -66 13.5t-48 4.5q-26 0 -43 -10.5
t-17 -26.5h-56q0 84 27.5 120.5t102.5 36.5q33 0 63 -5t70 -15q38 -8 60 -12t45 -4q28 0 44 9t16 26h56q0 -56 -11 -89.5t-39 -50.5t-80 -17q-27 0 -55.5 5z" />
    <glyph glyph-name="utilde" unicode="&#x169;" horiz-adv-x="686" 
d="M676 164v-164h-274v78q-72 -92 -180 -92q-83 0 -124.5 52t-41.5 143v211h-44v164h274v-328q0 -33 14.5 -48.5t43.5 -15.5t43.5 15.5t14.5 48.5v164h-54v164h284v-392h44zM358 623q-28 7 -65 20q-31 11 -51.5 16t-39.5 5t-30.5 -10t-11.5 -27h-56q0 86 25.5 128.5
t94.5 42.5q31 0 56.5 -6.5t60.5 -18.5q30 -11 50 -16t41 -5q22 0 32 10.5t10 24.5h56q0 -87 -22.5 -129t-90.5 -42q-31 0 -59 7z" />
    <glyph glyph-name="Umacron" unicode="&#x16a;" horiz-adv-x="781" 
d="M151.5 55q-85.5 69 -85.5 224v335h-50v164h370v-164h-40v-386q0 -33 14.5 -48.5t43.5 -15.5t43.5 15.5t14.5 48.5v386h-40v164h343v-164h-50v-335q0 -155 -83 -224t-238 -69q-157 0 -242.5 69zM223 840v98h358v-98h-358z" />
    <glyph glyph-name="umacron" unicode="&#x16b;" horiz-adv-x="686" 
d="M676 164v-164h-274v78q-72 -92 -180 -92q-83 0 -124.5 52t-41.5 143v211h-44v164h274v-328q0 -33 14.5 -48.5t43.5 -15.5t43.5 15.5t14.5 48.5v164h-54v164h284v-392h44zM138 635v118h358v-118h-358z" />
    <glyph glyph-name="Ubreve" unicode="&#x16c;" horiz-adv-x="781" 
d="M151.5 55q-85.5 69 -85.5 224v335h-50v164h370v-164h-40v-386q0 -33 14.5 -48.5t43.5 -15.5t43.5 15.5t14.5 48.5v386h-40v164h343v-164h-50v-335q0 -155 -83 -224t-238 -69q-157 0 -242.5 69zM246 877q-56 39 -56 108v10h149v-10q0 -45 63 -45t63 45v10h149v-10
q0 -69 -56 -108t-156 -39t-156 39z" />
    <glyph glyph-name="ubreve" unicode="&#x16d;" horiz-adv-x="686" 
d="M676 164v-164h-274v78q-72 -92 -180 -92q-83 0 -124.5 52t-41.5 143v211h-44v164h274v-328q0 -33 14.5 -48.5t43.5 -15.5t43.5 15.5t14.5 48.5v164h-54v164h284v-392h44zM161 662q-56 44 -56 123v10h149v-10q0 -65 63 -65t63 65v10h149v-10q0 -79 -56 -123t-156 -44
t-156 44z" />
    <glyph glyph-name="Uring" unicode="&#x16e;" horiz-adv-x="781" 
d="M151.5 55q-85.5 69 -85.5 224v335h-50v164h370v-164h-40v-386q0 -33 14.5 -48.5t43.5 -15.5t43.5 15.5t14.5 48.5v386h-40v164h343v-164h-50v-335q0 -155 -83 -224t-238 -69q-157 0 -242.5 69zM308 872q-37 34 -37 86t37 86t94 34t94 -34t37 -86t-37 -86t-94 -34t-94 34z
M433 925q12 13 12 33t-12 32.5t-31 12.5t-31.5 -12.5t-12.5 -32.5t12.5 -33t31.5 -13t31 13z" />
    <glyph glyph-name="uring" unicode="&#x16f;" horiz-adv-x="686" 
d="M676 164v-164h-274v78q-72 -92 -180 -92q-83 0 -124.5 52t-41.5 143v211h-44v164h274v-328q0 -33 14.5 -48.5t43.5 -15.5t43.5 15.5t14.5 48.5v164h-54v164h284v-392h44zM230 650.5q-35 34.5 -35 87.5t35 87.5t90 34.5t90 -34.5t35 -87.5t-35 -87.5t-90 -34.5t-90 34.5z
M348 707q11 12 11 31t-11 30.5t-28 11.5t-28.5 -11.5t-11.5 -30.5t11.5 -31t28.5 -12t28 12z" />
    <glyph glyph-name="Uhungarumlaut" unicode="&#x170;" horiz-adv-x="781" 
d="M151.5 55q-85.5 69 -85.5 224v335h-50v164h370v-164h-40v-386q0 -33 14.5 -48.5t43.5 -15.5t43.5 15.5t14.5 48.5v386h-40v164h343v-164h-50v-335q0 -155 -83 -224t-238 -69q-157 0 -242.5 69zM143 838v15l59 96h221v-26l-133 -85h-147zM424 838v15l59 96h221v-26
l-133 -85h-147z" />
    <glyph glyph-name="uhungarumlaut" unicode="&#x171;" horiz-adv-x="686" 
d="M676 164v-164h-274v78q-72 -92 -180 -92q-83 0 -124.5 52t-41.5 143v211h-44v164h274v-328q0 -33 14.5 -48.5t43.5 -15.5t43.5 15.5t14.5 48.5v164h-54v164h284v-392h44zM128 616v15l49 152h184v-27l-113 -140h-120zM356 616v15l49 152h184v-27l-113 -140h-120z" />
    <glyph glyph-name="Uogonek" unicode="&#x172;" horiz-adv-x="781" 
d="M765 778v-164h-50v-335q0 -140 -69 -210t-198 -81q-14 -25 -14 -46q0 -27 17 -42.5t47 -15.5q32 0 60 9v-85q-48 -24 -100 -24q-62 0 -97 28.5t-35 80.5q0 47 32 94q-140 7 -216 76.5t-76 215.5v335h-50v164h370v-164h-40v-386q0 -33 14.5 -48.5t43.5 -15.5t43.5 15.5
t14.5 48.5v386h-40v164h343z" />
    <glyph glyph-name="uogonek" unicode="&#x173;" horiz-adv-x="686" 
d="M559 0q-23 -30 -23 -58q0 -27 17 -42.5t47 -15.5q32 0 60 9v-85q-48 -24 -100 -24q-62 0 -97 28.5t-35 80.5q0 28 11.5 56t31.5 51h-69v78q-72 -92 -180 -92q-83 0 -124.5 52t-41.5 143v211h-44v164h274v-328q0 -33 14.5 -48.5t43.5 -15.5t43.5 15.5t14.5 48.5v164h-54
v164h284v-392h44v-164h-117z" />
    <glyph glyph-name="Wcircumflex" unicode="&#x174;" horiz-adv-x="1207" 
d="M875 778h320v-164h-40l-149 -614h-299l-91 432h-10l-96 -432h-299l-159 614h-40v164h370v-164h-38l39 -255h10l95 419h288l88 -419h10l39 255h-38v164zM380 838v15l127 126h250l127 -126v-15h-154l-93 81h-10l-93 -81h-154z" />
    <glyph glyph-name="wcircumflex" unicode="&#x175;" horiz-adv-x="956" 
d="M184 0l-132 392h-42v164h309v-164h-42l36 -156h10l73 320h184l73 -320h10l35 156h-42v164h290v-164h-42l-127 -392h-243l-55 278h-10l-55 -278h-230zM271 616v15l118 152h198l118 -152v-15h-150l-62 65h-10l-62 -65h-150z" />
    <glyph glyph-name="Ycircumflex" unicode="&#x176;" horiz-adv-x="776" 
d="M457 778h307v-164h-40l-193 -346v-104h50v-164h-380v164h50v104l-199 346h-40v164h387v-164h-35l59 -155h10l59 155h-35v164zM176 838v15l127 126h250l127 -126v-15h-154l-93 81h-10l-93 -81h-154z" />
    <glyph glyph-name="ycircumflex" unicode="&#x177;" horiz-adv-x="632" 
d="M620 556v-164h-38l-131 -347q-49 -131 -112 -196.5t-166 -65.5q-42 0 -85 8.5t-78 23.5v181h138v-10q0 -25 26 -25q23 0 35 22l-158 409h-38v164h297v-164h-34l52 -156l48 156h-34v164h278zM109 616v15l118 152h198l118 -152v-15h-150l-62 65h-10l-62 -65h-150z" />
    <glyph glyph-name="Ydieresis" unicode="&#x178;" horiz-adv-x="776" 
d="M457 778h307v-164h-40l-193 -346v-104h50v-164h-380v164h50v104l-199 346h-40v164h387v-164h-35l59 -155h10l59 155h-35v164zM217 838v127h184v-127h-184zM455 838v127h184v-127h-184z" />
    <glyph glyph-name="Zacute" unicode="&#x179;" horiz-adv-x="689" 
d="M476 246h199v-246h-661v144l308 470h-104v-82h-199v246h640v-144l-307 -470h124v82zM209 838v15l109 96h251v-26l-163 -85h-197z" />
    <glyph glyph-name="zacute" unicode="&#x17a;" horiz-adv-x="568" 
d="M14 0v149l244 243h-89v-36h-149v200h525v-143l-238 -249h96v56h151v-220h-540zM196 616v15l109 152h214v-27l-163 -140h-160z" />
    <glyph glyph-name="Zdotaccent" unicode="&#x17b;" horiz-adv-x="689" 
d="M476 246h199v-246h-661v144l308 470h-104v-82h-199v246h640v-144l-307 -470h124v82zM247 848v127h184v-127h-184z" />
    <glyph glyph-name="zdotaccent" unicode="&#x17c;" horiz-adv-x="568" 
d="M14 0v149l244 243h-89v-36h-149v200h525v-143l-238 -249h96v56h151v-220h-540zM195 626v167h176v-167h-176z" />
    <glyph glyph-name="Zcaron" unicode="&#x17d;" horiz-adv-x="689" 
d="M476 246h199v-246h-661v144l308 470h-104v-82h-199v246h640v-144l-307 -470h124v82zM214 838l-127 126v15h154l93 -81h10l93 81h154v-15l-127 -126h-250z" />
    <glyph glyph-name="zcaron" unicode="&#x17e;" horiz-adv-x="568" 
d="M14 0v149l244 243h-89v-36h-149v200h525v-143l-238 -249h96v56h151v-220h-540zM184 616l-118 152v15h150l62 -65h10l62 65h150v-15l-118 -152h-198z" />
    <glyph glyph-name="uni018F" unicode="&#x18f;" horiz-adv-x="739" 
d="M98 79q-86 93 -86 268v91h399v9q0 51 -30.5 75t-101.5 24q-112 0 -243 -38v221q63 27 146.5 45t161.5 18q381 0 381 -405q0 -194 -91.5 -297.5t-269.5 -103.5q-180 0 -266 93zM394.5 200q16.5 18 16.5 56v31h-134v-31q0 -39 17 -56.5t50 -17.5q34 0 50.5 18z" />
    <glyph glyph-name="florin" unicode="&#x192;" horiz-adv-x="384" 
d="M395.5 784q43.5 -8 63.5 -18v-157q-42 5 -78 5q-38 0 -56.5 -5.5t-25 -17.5t-6.5 -35h77v-164h-77l-1 -382q0 -246 -235 -246q-55 0 -98.5 8t-63.5 18v157q42 -5 78 -5q50 0 69.5 15.5t19.5 52.5v382h-44v164h44q0 123 58.5 179.5t176.5 56.5q55 0 98.5 -8z" />
    <glyph glyph-name="Ohorn" unicode="&#x1a0;" horiz-adv-x="792" 
d="M778 389q0 -211 -99.5 -307t-282.5 -96t-282.5 96t-99.5 307q0 209 99 306t273 97q52 0 104 -8q44 -6 66 -6q60 0 60 85v30h149v-30q0 -55 -25 -95t-73 -61q111 -100 111 -318zM464 540q0 38 -17 56t-51 18t-51 -18t-17 -56v-302q0 -39 17 -56.5t51 -17.5t51 18t17 56
v302z" />
    <glyph glyph-name="ohorn" unicode="&#x1a1;" horiz-adv-x="624" 
d="M664 661v-20q0 -59 -31.5 -98.5t-89.5 -55.5q71 -76 71 -209q0 -143 -80 -217.5t-222 -74.5t-222 74.5t-80 217.5t80 217.5t222 74.5q26 0 84 -7q44 -6 64 -6q33 0 49 20.5t16 63.5v20h139zM370 328q0 33 -14.5 48.5t-43.5 15.5t-43.5 -15.5t-14.5 -48.5v-100
q0 -33 14.5 -48.5t43.5 -15.5t43.5 15.5t14.5 48.5v100z" />
    <glyph glyph-name="Uhorn" unicode="&#x1af;" horiz-adv-x="781" 
d="M867 893v-30q0 -74 -40 -120t-112 -58v-406q0 -155 -83 -224t-238 -69q-157 0 -242.5 69t-85.5 224v335h-50v164h370v-164h-40v-386q0 -33 14.5 -48.5t43.5 -15.5t43.5 15.5t14.5 48.5v386h-40v164h223q37 0 55 21t18 64v30h149z" />
    <glyph glyph-name="uhorn" unicode="&#x1b0;" horiz-adv-x="676" 
d="M716 661v-20q0 -54 -24.5 -93.5t-69.5 -60.5v-323h44v-164h-274v78q-72 -92 -180 -92q-83 0 -124.5 52t-41.5 143v211h-44v164h274v-328q0 -33 14.5 -48.5t43.5 -15.5t43.5 15.5t14.5 48.5v164h-54v164h156q37 0 55 21t18 64v20h149z" />
    <glyph glyph-name="uni01C4" unicode="&#x1c4;" horiz-adv-x="1493" 
d="M20 164h50v449h-50v165h406q167 0 265.5 -91.5t98.5 -297.5t-98.5 -297.5t-265.5 -91.5h-406v164zM408 164q34 0 51 18t17 56v302q0 74 -68 74h-58v-450h58zM1280 246h199v-246h-661v144l308 470h-104v-82h-199v246h640v-144l-307 -470h124v82zM1018 838l-127 126v15h154
l93 -81h10l93 81h154v-15l-127 -126h-250z" />
    <glyph glyph-name="uni01C5" unicode="&#x1c5;" horiz-adv-x="1372" 
d="M20 164h50v449h-50v165h406q167 0 265.5 -91.5t98.5 -297.5t-98.5 -297.5t-265.5 -91.5h-406v164zM408 164q34 0 51 18t17 56v302q0 74 -68 74h-58v-450h58zM818 0v149l244 243h-89v-36h-149v200h525v-143l-238 -249h96v56h151v-220h-540zM988 616l-118 152v15h150
l62 -65h10l62 65h150v-15l-118 -152h-198z" />
    <glyph glyph-name="uni01C6" unicode="&#x1c6;" horiz-adv-x="1226" 
d="M61.5 62q-51.5 76 -51.5 216t51.5 216t153.5 76q51 0 90.5 -25t64.5 -57v126h-59v164h289v-614h44v-164h-274v68q-25 -32 -64.5 -57t-90.5 -25q-102 0 -153.5 76zM355.5 179.5q14.5 15.5 14.5 48.5v100q0 33 -14.5 48.5t-43.5 15.5t-43.5 -15.5t-14.5 -48.5v-100
q0 -33 14.5 -48.5t43.5 -15.5t43.5 15.5zM672 0v149l244 243h-89v-36h-149v200h525v-143l-238 -249h96v56h151v-220h-540zM842 616l-118 152v15h150l62 -65h10l62 65h150v-15l-118 -152h-198z" />
    <glyph glyph-name="uni01C7" unicode="&#x1c7;" horiz-adv-x="1319" 
d="M20 0v164h50v450h-50v164h422v-164h-92v-450h90v92h199v-256h-619zM780 3.5q-69 17.5 -115 48.5v176h200v-10q0 -54 52 -54q27 0 40.5 14.5t13.5 45.5v390h-90v164h420v-164h-50v-336q0 -147 -86 -219.5t-239 -72.5q-77 0 -146 17.5z" />
    <glyph glyph-name="uni01C8" unicode="&#x1c8;" horiz-adv-x="966" 
d="M20 0v164h50v450h-50v164h422v-164h-92v-450h90v92h199v-256h-619zM714 611v167h204v-167h-204zM622.5 -229q-43.5 7 -73.5 15v163q47 -7 84 -7q77 0 77 72v378h-67v164h297v-522q0 -137 -58 -203.5t-175 -66.5q-41 0 -84.5 7z" />
    <glyph glyph-name="uni01C9" unicode="&#x1c9;" horiz-adv-x="663" 
d="M18 -1v165h44v450h-44v164h274v-614h44v-165h-318zM411 611v167h204v-167h-204zM319.5 -229q-43.5 7 -73.5 15v163q47 -7 84 -7q77 0 77 72v378h-67v164h297v-522q0 -137 -58 -203.5t-175 -66.5q-41 0 -84.5 7z" />
    <glyph glyph-name="uni01CA" unicode="&#x1ca;" horiz-adv-x="1608" 
d="M596 778h328v-164h-50v-614h-281l-293 451v-287h48v-164h-328v164h50v450h-50v164h361l263 -401v237h-48v164zM1069 3.5q-69 17.5 -115 48.5v176h200v-10q0 -54 52 -54q27 0 40.5 14.5t13.5 45.5v390h-90v164h420v-164h-50v-336q0 -147 -86 -219.5t-239 -72.5
q-77 0 -146 17.5z" />
    <glyph glyph-name="uni01CB" unicode="&#x1cb;" horiz-adv-x="1255" 
d="M596 778h328v-164h-50v-614h-281l-293 451v-287h48v-164h-328v164h50v450h-50v164h361l263 -401v237h-48v164zM1003 611v167h204v-167h-204zM911.5 -229q-43.5 7 -73.5 15v163q47 -7 84 -7q77 0 77 72v378h-67v164h297v-522q0 -137 -58 -203.5t-175 -66.5q-41 0 -84.5 7z
" />
    <glyph glyph-name="uni01CC" unicode="&#x1cc;" horiz-adv-x="1009" 
d="M682 164v-164h-316v164h42v164q0 33 -14 48.5t-42 15.5q-60 0 -60 -64v-164h42v-164h-316v164h44v228h-44v164h274v-78q72 92 180 92q83 0 124.5 -52t41.5 -143v-211h44zM757 611v167h204v-167h-204zM665.5 -229q-43.5 7 -73.5 15v163q47 -7 84 -7q77 0 77 72v378h-67
v164h297v-522q0 -137 -58 -203.5t-175 -66.5q-41 0 -84.5 7z" />
    <glyph glyph-name="Gcaron" unicode="&#x1e6;" horiz-adv-x="782" 
d="M774 250h-50v-200q-44 -25 -128.5 -44.5t-182.5 -19.5q-187 0 -293 98.5t-106 304.5q0 211 105.5 307t301.5 96q95 0 178 -20t125 -45v-239h-250v47q0 42 -17.5 60.5t-55.5 18.5t-55.5 -18.5t-17.5 -60.5v-292q0 -42 17.5 -60.5t55.5 -18.5t55.5 18.5t17.5 60.5v7h-54
v149h354v-149zM296 838l-127 126v15h154l93 -81h10l93 81h154v-15l-127 -126h-250z" />
    <glyph glyph-name="gcaron" unicode="&#x1e7;" horiz-adv-x="654" 
d="M173.5 -226q-65.5 10 -101.5 23v164q106 -19 190 -19q57 0 82.5 17.5t25.5 65.5v43q-25 -32 -64.5 -57t-90.5 -25q-102 0 -153.5 76t-51.5 216t51.5 216t153.5 76q51 0 90.5 -25t64.5 -57v68h274v-164h-44v-352q0 -145 -72 -210.5t-217 -65.5q-72 0 -137.5 10z
M355.5 179.5q14.5 15.5 14.5 48.5v100q0 33 -14.5 48.5t-43.5 15.5t-43.5 -15.5t-14.5 -48.5v-100q0 -33 14.5 -48.5t43.5 -15.5t43.5 15.5zM243 616l-118 152v15h150l62 -65h10l62 65h150v-15l-118 -152h-198z" />
    <glyph glyph-name="uni01EA" unicode="&#x1ea;" horiz-adv-x="792" 
d="M451 -12q-14 -25 -14 -46q0 -27 17 -42.5t47 -15.5q32 0 60 9v-85q-48 -24 -100 -24q-62 0 -97 28.5t-35 80.5q0 47 32 94q-347 18 -347 402q0 211 99.5 307t282.5 96t282.5 -96t99.5 -307q0 -373 -327 -401zM345 181.5q17 -17.5 51 -17.5t51 18t17 56v302q0 38 -17 56
t-51 18t-51 -18t-17 -56v-302q0 -39 17 -56.5z" />
    <glyph glyph-name="uni01EB" unicode="&#x1eb;" horiz-adv-x="632" 
d="M547 69q-71 -74 -197 -82q-14 -22 -14 -45q0 -27 17 -42.5t47 -15.5q31 0 60 9v-85q-48 -24 -100 -24q-62 0 -97 28.5t-35 80.5q0 51 34 96q-118 14 -183 87t-65 202q0 143 80 217.5t222 74.5q144 0 223 -75.5t79 -216.5q0 -135 -71 -209zM258 228q0 -33 14.5 -48.5
t43.5 -15.5t43.5 15.5t14.5 48.5v100q0 33 -14.5 48.5t-43.5 15.5t-43.5 -15.5t-14.5 -48.5v-100z" />
    <glyph glyph-name="Aringacute" unicode="&#x1fa;" horiz-adv-x="806" 
d="M754 164h40v-164h-392v164h60l-16 80h-136l-16 -80h60v-164h-342v164h40l169 614h364zM332 350h92l-41 199h-10zM309 872q-37 34 -37 86t37 86t94 34t94 -34t37 -86t-37 -86t-94 -34t-94 34zM434 925q12 13 12 33t-12 32.5t-31 12.5t-31.5 -12.5t-12.5 -32.5t12.5 -33
t31.5 -13t31 13zM273 1127v15l109 96h251v-26l-163 -85h-197z" />
    <glyph glyph-name="aringacute" unicode="&#x1fb;" horiz-adv-x="615" 
d="M601 164v-164h-264v68q-22 -32 -61.5 -57t-96.5 -25q-75 0 -118 40t-43 113q0 189 321 194q-3 34 -26 46.5t-78 12.5q-45 0 -96.5 -9.5t-94.5 -25.5v184q53 13 115 21t121 8q149 0 213 -54t64 -167v-185h44zM337 234q-45 0 -69.5 -12t-24.5 -40q0 -17 10.5 -27.5
t29.5 -10.5q26 0 40 22t14 62v6zM228 650.5q-35 34.5 -35 87.5t35 87.5t90 34.5t90 -34.5t35 -87.5t-35 -87.5t-90 -34.5t-90 34.5zM346 707q11 12 11 31t-11 30.5t-28 11.5t-28.5 -11.5t-11.5 -30.5t11.5 -31t28.5 -12t28 12zM185 902v15l109 96h251v-26l-163 -85h-197z
" />
    <glyph glyph-name="AEacute" unicode="&#x1fc;" horiz-adv-x="1138" 
d="M1120 476h-224v138h-121v-158h88v-114h-88v-178h121v158h224v-322h-675v164h50v80h-137l-29 -80h60v-164h-377v164h40l259 614h809v-302zM401 360h94v231h-10zM571 838v15l109 96h251v-26l-163 -85h-197z" />
    <glyph glyph-name="aeacute" unicode="&#x1fd;" horiz-adv-x="905" 
d="M569 242v-6q0 -37 22 -54.5t73 -17.5q61 0 116 9t96 23v-160q-35 -19 -102.5 -34.5t-146.5 -15.5q-82 0 -144.5 25.5t-101.5 75.5q-34 -43 -84 -72t-118 -29q-75 0 -118 40t-43 113q0 189 321 194q-3 34 -26 46.5t-78 12.5q-45 0 -96.5 -9.5t-94.5 -25.5v184
q53 13 115 21t121 8q121 0 185 -48q72 48 173 48q134 0 194.5 -74t60.5 -182v-72h-324zM569 352h116v12q0 34 -14.5 49t-43.5 15t-43.5 -15.5t-14.5 -48.5v-12zM337 234q-45 0 -69.5 -12t-24.5 -40q0 -17 10.5 -27.5t29.5 -10.5q26 0 40 22t14 62v6zM379 616v15l109 152h214
v-27l-163 -140h-160z" />
    <glyph glyph-name="Oslashacute" unicode="&#x1fe;" horiz-adv-x="792" 
d="M778 389q0 -211 -99.5 -307t-282.5 -96q-139 0 -228 54l-34 -40h-110v30l66 78q-76 101 -76 281q0 211 99.5 307t282.5 96q141 0 228 -53l34 40h110v-30l-67 -79q77 -99 77 -281zM322 382l148 174q-3 33 -21 48.5t-53 15.5q-37 0 -55.5 -18t-18.5 -56v-164zM451.5 176
q18.5 18 18.5 56v165l-148 -175q2 -34 20.5 -49t53.5 -15q37 0 55.5 18zM265 838v15l109 96h251v-26l-163 -85h-197z" />
    <glyph glyph-name="oslashacute" unicode="&#x1ff;" horiz-adv-x="632" 
d="M618 278q0 -143 -80 -217.5t-222 -74.5q-120 0 -196 53l-25 -32h-71v20l47 58q-57 72 -57 193q0 143 80 217.5t222 74.5q119 0 193 -51l29 37h70v-20l-50 -62q60 -74 60 -196zM268 382.5q-16 -15.5 -16 -48.5v-75l119 114q-15 25 -55 25q-32 0 -48 -15.5zM365 173
q15 15 15 49v71l-118 -113q16 -22 54 -22q34 0 49 15zM229 616v15l109 152h214v-27l-163 -140h-160z" />
    <glyph glyph-name="uni0200" unicode="&#x200;" horiz-adv-x="806" 
d="M754 164h40v-164h-392v164h60l-16 80h-136l-16 -80h60v-164h-342v164h40l169 614h364zM332 350h92l-41 199h-10zM217 838l-133 85v26h221l59 -96v-15h-147zM498 838l-133 85v26h221l59 -96v-15h-147z" />
    <glyph glyph-name="uni0201" unicode="&#x201;" horiz-adv-x="615" 
d="M601 164v-164h-264v68q-22 -32 -61.5 -57t-96.5 -25q-75 0 -118 40t-43 113q0 189 321 194q-3 34 -26 46.5t-78 12.5q-45 0 -96.5 -9.5t-94.5 -25.5v184q53 13 115 21t121 8q149 0 213 -54t64 -167v-185h44zM337 234q-45 0 -69.5 -12t-24.5 -40q0 -17 10.5 -27.5
t29.5 -10.5q26 0 40 22t14 62v6zM156 611l-113 140v27h184l49 -152v-15h-120zM384 611l-113 140v27h184l49 -152v-15h-120z" />
    <glyph glyph-name="uni0202" unicode="&#x202;" horiz-adv-x="806" 
d="M754 164h40v-164h-392v164h60l-16 80h-136l-16 -80h60v-164h-342v164h40l169 614h364zM332 350h92l-41 199h-10zM191 848q0 69 56 108t156 39t156 -39t56 -108v-10h-149v10q0 45 -63 45t-63 -45v-10h-149v10z" />
    <glyph glyph-name="uni0203" unicode="&#x203;" horiz-adv-x="615" 
d="M601 164v-164h-264v68q-22 -32 -61.5 -57t-96.5 -25q-75 0 -118 40t-43 113q0 189 321 194q-3 34 -26 46.5t-78 12.5q-45 0 -96.5 -9.5t-94.5 -25.5v184q53 13 115 21t121 8q149 0 213 -54t64 -167v-185h44zM337 234q-45 0 -69.5 -12t-24.5 -40q0 -17 10.5 -27.5
t29.5 -10.5q26 0 40 22t14 62v6zM103 628q0 79 56 123t156 44t156 -44t56 -123v-10h-149v10q0 65 -63 65t-63 -65v-10h-149v10z" />
    <glyph glyph-name="uni0204" unicode="&#x204;" horiz-adv-x="713" 
d="M20 0v164h50v450h-50v164h675v-302h-224v138h-121v-158h88v-114h-88v-178h121v158h224v-322h-675zM197 838l-133 85v26h221l59 -96v-15h-147zM478 838l-133 85v26h221l59 -96v-15h-147z" />
    <glyph glyph-name="uni0205" unicode="&#x205;" horiz-adv-x="594" 
d="M94 60.5q-80 74.5 -80 217.5t80 217.5t222 74.5q141 0 203.5 -73.5t62.5 -182.5v-72h-324v-6q0 -37 22 -54.5t73 -17.5q61 0 116 9t96 23v-160q-35 -19 -102.5 -34.5t-146.5 -15.5q-142 0 -222 74.5zM374 352v12q0 34 -14.5 49t-43.5 15t-43.5 -15.5t-14.5 -48.5v-12h116
zM157 611l-113 140v27h184l49 -152v-15h-120zM385 611l-113 140v27h184l49 -152v-15h-120z" />
    <glyph glyph-name="uni0206" unicode="&#x206;" horiz-adv-x="713" 
d="M20 0v164h50v450h-50v164h675v-302h-224v138h-121v-158h88v-114h-88v-178h121v158h224v-322h-675zM171 848q0 69 56 108t156 39t156 -39t56 -108v-10h-149v10q0 45 -63 45t-63 -45v-10h-149v10z" />
    <glyph glyph-name="uni0207" unicode="&#x207;" horiz-adv-x="594" 
d="M94 60.5q-80 74.5 -80 217.5t80 217.5t222 74.5q141 0 203.5 -73.5t62.5 -182.5v-72h-324v-6q0 -37 22 -54.5t73 -17.5q61 0 116 9t96 23v-160q-35 -19 -102.5 -34.5t-146.5 -15.5q-142 0 -222 74.5zM374 352v12q0 34 -14.5 49t-43.5 15t-43.5 -15.5t-14.5 -48.5v-12h116
zM104 628q0 79 56 123t156 44t156 -44t56 -123v-10h-149v10q0 65 -63 65t-63 -65v-10h-149v10z" />
    <glyph glyph-name="uni0208" unicode="&#x208;" horiz-adv-x="420" 
d="M20 0v164h50v450h-50v164h380v-164h-50v-450h50v-164h-380zM24 838l-133 85v26h221l59 -96v-15h-147zM305 838l-133 85v26h221l59 -96v-15h-147z" />
    <glyph glyph-name="uni0209" unicode="&#x209;" horiz-adv-x="346" 
d="M18 0v164h44v228h-44v164h274v-392h44v-164h-318zM8 611l-113 140v27h184l49 -152v-15h-120zM236 611l-113 140v27h184l49 -152v-15h-120z" />
    <glyph glyph-name="uni020A" unicode="&#x20a;" horiz-adv-x="420" 
d="M20 0v164h50v450h-50v164h380v-164h-50v-450h50v-164h-380zM-2 848q0 69 56 108t156 39t156 -39t56 -108v-10h-149v10q0 45 -63 45t-63 -45v-10h-149v10z" />
    <glyph glyph-name="uni020B" unicode="&#x20b;" horiz-adv-x="346" 
d="M18 0v164h44v228h-44v164h274v-392h44v-164h-318zM-45 628q0 79 56 123t156 44t156 -44t56 -123v-10h-149v10q0 65 -63 65t-63 -65v-10h-149v10z" />
    <glyph glyph-name="uni020C" unicode="&#x20c;" horiz-adv-x="792" 
d="M113.5 82q-99.5 96 -99.5 307t99.5 307t282.5 96t282.5 -96t99.5 -307t-99.5 -307t-282.5 -96t-282.5 96zM447 182q17 18 17 56v302q0 38 -17 56t-51 18t-51 -18t-17 -56v-302q0 -39 17 -56.5t51 -17.5t51 18zM210 838l-133 85v26h221l59 -96v-15h-147zM491 838l-133 85
v26h221l59 -96v-15h-147z" />
    <glyph glyph-name="uni020D" unicode="&#x20d;" horiz-adv-x="632" 
d="M94 60.5q-80 74.5 -80 217.5t80 217.5t222 74.5q144 0 223 -75.5t79 -216.5q0 -143 -80 -217.5t-222 -74.5t-222 74.5zM359.5 179.5q14.5 15.5 14.5 48.5v100q0 33 -14.5 48.5t-43.5 15.5t-43.5 -15.5t-14.5 -48.5v-100q0 -33 14.5 -48.5t43.5 -15.5t43.5 15.5zM157 611
l-113 140v27h184l49 -152v-15h-120zM385 611l-113 140v27h184l49 -152v-15h-120z" />
    <glyph glyph-name="uni020E" unicode="&#x20e;" horiz-adv-x="792" 
d="M113.5 82q-99.5 96 -99.5 307t99.5 307t282.5 96t282.5 -96t99.5 -307t-99.5 -307t-282.5 -96t-282.5 96zM447 182q17 18 17 56v302q0 38 -17 56t-51 18t-51 -18t-17 -56v-302q0 -39 17 -56.5t51 -17.5t51 18zM184 848q0 69 56 108t156 39t156 -39t56 -108v-10h-149v10
q0 45 -63 45t-63 -45v-10h-149v10z" />
    <glyph glyph-name="uni020F" unicode="&#x20f;" horiz-adv-x="632" 
d="M94 60.5q-80 74.5 -80 217.5t80 217.5t222 74.5q144 0 223 -75.5t79 -216.5q0 -143 -80 -217.5t-222 -74.5t-222 74.5zM359.5 179.5q14.5 15.5 14.5 48.5v100q0 33 -14.5 48.5t-43.5 15.5t-43.5 -15.5t-14.5 -48.5v-100q0 -33 14.5 -48.5t43.5 -15.5t43.5 15.5zM104 628
q0 79 56 123t156 44t156 -44t56 -123v-10h-149v10q0 65 -63 65t-63 -65v-10h-149v10z" />
    <glyph glyph-name="uni0210" unicode="&#x210;" horiz-adv-x="800" 
d="M20 164h50v450h-50v164h459q129 0 197 -53t68 -172q0 -67 -27 -116t-77 -68l1 -10q96 -15 96 -118v-77h47v-164h-317v235q0 39 -11.5 59t-36 27t-69.5 7v-164h66v-164h-396v164zM404 450q29 0 43.5 15.5t14.5 48.5v36q0 33 -14.5 48.5t-43.5 15.5h-54v-164h54zM191 838
l-133 85v26h221l59 -96v-15h-147zM472 838l-133 85v26h221l59 -96v-15h-147z" />
    <glyph glyph-name="uni0211" unicode="&#x211;" horiz-adv-x="527" 
d="M483 566q18 -4 30 -10v-191q-41 17 -88 17q-63 0 -97 -33t-34 -98v-87h90v-164h-364v164h44v228h-44v164h274v-73q28 42 64 64.5t87 22.5q20 0 38 -4zM100 611l-113 140v27h184l49 -152v-15h-120zM328 611l-113 140v27h184l49 -152v-15h-120z" />
    <glyph glyph-name="uni0212" unicode="&#x212;" horiz-adv-x="800" 
d="M20 164h50v450h-50v164h459q129 0 197 -53t68 -172q0 -67 -27 -116t-77 -68l1 -10q96 -15 96 -118v-77h47v-164h-317v235q0 39 -11.5 59t-36 27t-69.5 7v-164h66v-164h-396v164zM404 450q29 0 43.5 15.5t14.5 48.5v36q0 33 -14.5 48.5t-43.5 15.5h-54v-164h54zM165 848
q0 69 56 108t156 39t156 -39t56 -108v-10h-149v10q0 45 -63 45t-63 -45v-10h-149v10z" />
    <glyph glyph-name="uni0213" unicode="&#x213;" horiz-adv-x="527" 
d="M483 566q18 -4 30 -10v-191q-41 17 -88 17q-63 0 -97 -33t-34 -98v-87h90v-164h-364v164h44v228h-44v164h274v-73q28 42 64 64.5t87 22.5q20 0 38 -4zM47 628q0 79 56 123t156 44t156 -44t56 -123v-10h-149v10q0 65 -63 65t-63 -65v-10h-149v10z" />
    <glyph glyph-name="uni0214" unicode="&#x214;" horiz-adv-x="781" 
d="M151.5 55q-85.5 69 -85.5 224v335h-50v164h370v-164h-40v-386q0 -33 14.5 -48.5t43.5 -15.5t43.5 15.5t14.5 48.5v386h-40v164h343v-164h-50v-335q0 -155 -83 -224t-238 -69q-157 0 -242.5 69zM216 838l-133 85v26h221l59 -96v-15h-147zM497 838l-133 85v26h221l59 -96
v-15h-147z" />
    <glyph glyph-name="uni0215" unicode="&#x215;" horiz-adv-x="686" 
d="M676 164v-164h-274v78q-72 -92 -180 -92q-83 0 -124.5 52t-41.5 143v211h-44v164h274v-328q0 -33 14.5 -48.5t43.5 -15.5t43.5 15.5t14.5 48.5v164h-54v164h284v-392h44zM158 611l-113 140v27h184l49 -152v-15h-120zM386 611l-113 140v27h184l49 -152v-15h-120z" />
    <glyph glyph-name="uni0216" unicode="&#x216;" horiz-adv-x="781" 
d="M151.5 55q-85.5 69 -85.5 224v335h-50v164h370v-164h-40v-386q0 -33 14.5 -48.5t43.5 -15.5t43.5 15.5t14.5 48.5v386h-40v164h343v-164h-50v-335q0 -155 -83 -224t-238 -69q-157 0 -242.5 69zM190 848q0 69 56 108t156 39t156 -39t56 -108v-10h-149v10q0 45 -63 45
t-63 -45v-10h-149v10z" />
    <glyph glyph-name="uni0217" unicode="&#x217;" horiz-adv-x="686" 
d="M676 164v-164h-274v78q-72 -92 -180 -92q-83 0 -124.5 52t-41.5 143v211h-44v164h274v-328q0 -33 14.5 -48.5t43.5 -15.5t43.5 15.5t14.5 48.5v164h-54v164h284v-392h44zM105 628q0 79 56 123t156 44t156 -44t56 -123v-10h-149v10q0 65 -63 65t-63 -65v-10h-149v10z" />
    <glyph glyph-name="Scommaaccent" unicode="&#x218;" horiz-adv-x="674" 
d="M148.5 2.5q-85.5 16.5 -131.5 37.5v198h220q0 -31 14 -45t51 -14q31 0 44.5 9.5t13.5 28.5q0 16 -13 27.5t-45 23.5l-86 30q-111 42 -159.5 99t-48.5 154q0 118 77.5 179.5t258.5 61.5q87 0 163.5 -17.5t123.5 -46.5v-179h-200q0 50 -62 50q-30 0 -42.5 -7.5t-12.5 -26.5
q0 -17 14.5 -27t47.5 -21l87 -30q106 -36 154.5 -93.5t48.5 -150.5q0 -127 -85.5 -192t-250.5 -65q-96 0 -181.5 16.5zM271 -315l32 113h-41v142h150v-142l-55 -113h-86z" />
    <glyph glyph-name="scommaaccent" unicode="&#x219;" horiz-adv-x="519" 
d="M18 26v148h162v-10q0 -48 61 -48q54 0 54 37q0 20 -15.5 30t-54.5 17l-50 9q-157 28 -157 178q0 87 66 135t178 48q125 0 211 -42v-139h-152v10q0 20 -13.5 30.5t-39.5 10.5q-50 0 -50 -32q0 -17 14 -26t51 -17l57 -11q89 -17 127 -63t38 -118q0 -91 -63.5 -139
t-180.5 -48q-126 0 -243 40zM195 -315l32 113h-41v142h150v-142l-55 -113h-86z" />
    <glyph glyph-name="uni021A" unicode="&#x21a;" horiz-adv-x="780" 
d="M766 536h-172v78h-64v-450h70v-164h-420v164h70v450h-64v-78h-172v242h752v-242zM324 -315l32 113h-41v142h150v-142l-55 -113h-86z" />
    <glyph glyph-name="uni021B" unicode="&#x21b;" horiz-adv-x="451" 
d="M105.5 37.5q-53.5 51.5 -53.5 173.5v181h-44v164q38 0 57 19.5t19 53.5v45h212v-118h135v-164h-135v-164q0 -33 14.5 -48.5t43.5 -15.5q38 0 83 9v-157q-28 -11 -75.5 -20.5t-96.5 -9.5q-106 0 -159.5 51.5zM185 -315l32 113h-41v142h150v-142l-55 -113h-86z" />
    <glyph glyph-name="uni022A" unicode="&#x22a;" horiz-adv-x="792" 
d="M113.5 82q-99.5 96 -99.5 307t99.5 307t282.5 96t282.5 -96t99.5 -307t-99.5 -307t-282.5 -96t-282.5 96zM447 182q17 18 17 56v302q0 38 -17 56t-51 18t-51 -18t-17 -56v-302q0 -39 17 -56.5t51 -17.5t51 18zM185 848v167h167v-167h-167zM441 848v167h166v-167h-166z
M217 1094v118h358v-118h-358z" />
    <glyph glyph-name="uni022B" unicode="&#x22b;" horiz-adv-x="632" 
d="M94 60.5q-80 74.5 -80 217.5t80 217.5t222 74.5q144 0 223 -75.5t79 -216.5q0 -143 -80 -217.5t-222 -74.5t-222 74.5zM359.5 179.5q14.5 15.5 14.5 48.5v100q0 33 -14.5 48.5t-43.5 15.5t-43.5 -15.5t-14.5 -48.5v-100q0 -33 14.5 -48.5t43.5 -15.5t43.5 15.5zM105 626
v167h167v-167h-167zM361 626v167h166v-167h-166zM137 855v98h358v-98h-358z" />
    <glyph glyph-name="uni022C" unicode="&#x22c;" horiz-adv-x="792" 
d="M113.5 82q-99.5 96 -99.5 307t99.5 307t282.5 96t282.5 -96t99.5 -307t-99.5 -307t-282.5 -96t-282.5 96zM447 182q17 18 17 56v302q0 38 -17 56t-51 18t-51 -18t-17 -56v-302q0 -39 17 -56.5t51 -17.5t51 18zM452.5 843q-28.5 5 -68.5 15q-42 9 -66 13.5t-48 4.5
q-26 0 -43 -10.5t-17 -26.5h-56q0 84 27.5 120.5t102.5 36.5q33 0 63 -5t70 -15q38 -8 60 -12t45 -4q28 0 44 9t16 26h56q0 -56 -11 -89.5t-39 -50.5t-80 -17q-27 0 -55.5 5zM217 1058v98h358v-98h-358z" />
    <glyph glyph-name="uni022D" unicode="&#x22d;" horiz-adv-x="632" 
d="M137 855v98h358v-98h-358zM357 623q-28 7 -65 20q-31 11 -51.5 16t-39.5 5t-30.5 -10t-11.5 -27h-56q0 86 25.5 128.5t94.5 42.5q31 0 56.5 -6.5t60.5 -18.5q30 -11 50 -16t41 -5q22 0 32 10.5t10 24.5h56q0 -87 -22.5 -129t-90.5 -42q-31 0 -59 7zM94 60.5
q-80 74.5 -80 217.5t80 217.5t222 74.5q144 0 223 -75.5t79 -216.5q0 -143 -80 -217.5t-222 -74.5t-222 74.5zM359.5 179.5q14.5 15.5 14.5 48.5v100q0 33 -14.5 48.5t-43.5 15.5t-43.5 -15.5t-14.5 -48.5v-100q0 -33 14.5 -48.5t43.5 -15.5t43.5 15.5z" />
    <glyph glyph-name="uni0230" unicode="&#x230;" horiz-adv-x="792" 
d="M113.5 82q-99.5 96 -99.5 307t99.5 307t282.5 96t282.5 -96t99.5 -307t-99.5 -307t-282.5 -96t-282.5 96zM447 182q17 18 17 56v302q0 38 -17 56t-51 18t-51 -18t-17 -56v-302q0 -39 17 -56.5t51 -17.5t51 18zM304 848v127h184v-127h-184zM217 1027v98h358v-98h-358z" />
    <glyph glyph-name="uni0231" unicode="&#x231;" horiz-adv-x="632" 
d="M94 60.5q-80 74.5 -80 217.5t80 217.5t222 74.5q144 0 223 -75.5t79 -216.5q0 -143 -80 -217.5t-222 -74.5t-222 74.5zM359.5 179.5q14.5 15.5 14.5 48.5v100q0 33 -14.5 48.5t-43.5 15.5t-43.5 -15.5t-14.5 -48.5v-100q0 -33 14.5 -48.5t43.5 -15.5t43.5 15.5zM228 626
v167h176v-167h-176zM137 855v98h358v-98h-358z" />
    <glyph glyph-name="uni0232" unicode="&#x232;" horiz-adv-x="776" 
d="M457 778h307v-164h-40l-193 -346v-104h50v-164h-380v164h50v104l-199 346h-40v164h387v-164h-35l59 -155h10l59 155h-35v164zM249 840v98h358v-98h-358z" />
    <glyph glyph-name="uni0233" unicode="&#x233;" horiz-adv-x="632" 
d="M620 556v-164h-38l-131 -347q-49 -131 -112 -196.5t-166 -65.5q-42 0 -85 8.5t-78 23.5v181h138v-10q0 -25 26 -25q23 0 35 22l-158 409h-38v164h297v-164h-34l52 -156l48 156h-34v164h278zM147 635v118h358v-118h-358z" />
    <glyph glyph-name="uni0237" unicode="&#x237;" horiz-adv-x="313" 
d="M-30.5 -229q-43.5 7 -73.5 15v163q47 -7 84 -7q77 0 77 72v378h-67v164h297v-522q0 -137 -58 -203.5t-175 -66.5q-41 0 -84.5 7z" />
    <glyph glyph-name="uni0259" unicode="&#x259;" horiz-adv-x="594" 
d="M75.5 59.5q-63.5 73.5 -63.5 182.5v72h324v6q0 37 -24.5 54.5t-80.5 17.5q-96 0 -202 -32v160q51 22 118.5 36t130.5 14q142 0 222 -74.5t80 -218.5q0 -143 -78.5 -217t-217.5 -74q-145 0 -208.5 73.5zM321.5 143.5q14.5 15.5 14.5 48.5v12h-116v-12q0 -34 14.5 -49
t43.5 -15t43.5 15.5z" />
    <glyph glyph-name="uni02BB" unicode="&#x2bb;" horiz-adv-x="230" 
d="M40 616v132l55 113h86l-32 -113h41v-132h-150z" />
    <glyph glyph-name="uni02BC" unicode="&#x2bc;" horiz-adv-x="270" 
d="M69 311l32 113h-41v132h150v-132l-55 -113h-86z" />
    <glyph glyph-name="uni02BE" unicode="&#x2be;" horiz-adv-x="205" 
d="M40 682q21 0 32.5 12t11.5 31t-11.5 30.5t-32.5 11.5v80q55 0 90 -34.5t35 -87.5t-35 -87.5t-90 -34.5v79z" />
    <glyph glyph-name="uni02BF" unicode="&#x2bf;" horiz-adv-x="205" 
d="M75 637.5q-35 34.5 -35 87.5t35 87.5t90 34.5v-80q-22 0 -33.5 -11.5t-11.5 -30.5t11.5 -31t33.5 -12v-79q-55 0 -90 34.5z" />
    <glyph glyph-name="circumflex" unicode="&#x2c6;" horiz-adv-x="514" 
d="M40 611v15l118 152h198l118 -152v-15h-150l-62 65h-10l-62 -65h-150z" />
    <glyph glyph-name="caron" unicode="&#x2c7;" horiz-adv-x="511" 
d="M158 611l-118 152v15h150l62 -65h10l62 65h150v-15l-118 -152h-198z" />
    <glyph glyph-name="uni02C8" unicode="&#x2c8;" horiz-adv-x="206" 
d="M40 603v244h126v-244h-126z" />
    <glyph glyph-name="uni02C9" unicode="&#x2c9;" horiz-adv-x="438" 
d="M40 640v118h358v-118h-358z" />
    <glyph glyph-name="uni02CA" unicode="&#x2ca;" horiz-adv-x="403" 
d="M40 611v15l109 152h214v-27l-163 -140h-160z" />
    <glyph glyph-name="uni02CB" unicode="&#x2cb;" horiz-adv-x="403" 
d="M203 611l-163 140v27h214l109 -152v-15h-160z" />
    <glyph glyph-name="uni02CC" unicode="&#x2cc;" horiz-adv-x="206" 
d="M40 -214v244h126v-244h-126z" />
    <glyph glyph-name="breve" unicode="&#x2d8;" horiz-adv-x="504" 
d="M96 647q-56 44 -56 123v10h149v-10q0 -65 63 -65t63 65v10h149v-10q0 -79 -56 -123t-156 -44t-156 44z" />
    <glyph glyph-name="dotaccent" unicode="&#x2d9;" horiz-adv-x="256" 
d="M40 611v167h176v-167h-176z" />
    <glyph glyph-name="ring" unicode="&#x2da;" horiz-adv-x="330" 
d="M75 637.5q-35 34.5 -35 87.5t35 87.5t90 34.5t90 -34.5t35 -87.5t-35 -87.5t-90 -34.5t-90 34.5zM193 694q11 12 11 31t-11 30.5t-28 11.5t-28.5 -11.5t-11.5 -30.5t11.5 -31t28.5 -12t28 12z" />
    <glyph glyph-name="ogonek" unicode="&#x2db;" horiz-adv-x="312" 
d="M75 -217.5q-35 28.5 -35 80.5q0 38 20.5 75t53.5 62h88q-23 -16 -38.5 -39t-15.5 -49q0 -27 17 -42.5t47 -15.5q32 0 60 9v-85q-48 -24 -100 -24q-62 0 -97 28.5z" />
    <glyph glyph-name="tilde" unicode="&#x2dc;" horiz-adv-x="506" 
d="M294 618q-28 7 -65 20q-31 11 -51.5 16t-39.5 5t-30.5 -10t-11.5 -27h-56q0 86 25.5 128.5t94.5 42.5q31 0 56.5 -6.5t60.5 -18.5q30 -11 50 -16t41 -5q22 0 32 10.5t10 24.5h56q0 -87 -22.5 -129t-90.5 -42q-31 0 -59 7z" />
    <glyph glyph-name="hungarumlaut" unicode="&#x2dd;" horiz-adv-x="541" 
d="M40 611v15l49 152h184v-27l-113 -140h-120zM268 611v15l49 152h184v-27l-113 -140h-120z" />
    <glyph glyph-name="gravecomb" unicode="&#x300;" 
d="M-78 616l-163 140v27h214l109 -152v-15h-160z" />
    <glyph glyph-name="acutecomb" unicode="&#x301;" 
d="M-87 616v15l109 152h214v-27l-163 -140h-160z" />
    <glyph glyph-name="uni0302" unicode="&#x302;" 
d="M-217 616v15l118 152h198l118 -152v-15h-150l-62 65h-10l-62 -65h-150z" />
    <glyph glyph-name="tildecomb" unicode="&#x303;" 
d="M41 623q-28 7 -65 20q-31 11 -51.5 16t-39.5 5t-30.5 -10t-11.5 -27h-56q0 86 25.5 128.5t94.5 42.5q31 0 56.5 -6.5t60.5 -18.5q30 -11 50 -16t41 -5q22 0 32 10.5t10 24.5h56q0 -87 -22.5 -129t-90.5 -42q-31 0 -59 7z" />
    <glyph glyph-name="uni0304" unicode="&#x304;" 
d="M-179 635v118h358v-118h-358z" />
    <glyph glyph-name="uni0306" unicode="&#x306;" 
d="M-156 662q-56 44 -56 123v10h149v-10q0 -65 63 -65t63 65v10h149v-10q0 -79 -56 -123t-156 -44t-156 44z" />
    <glyph glyph-name="uni0307" unicode="&#x307;" 
d="M-88 626v167h176v-167h-176z" />
    <glyph glyph-name="uni0308" unicode="&#x308;" 
d="M-211 626v167h167v-167h-167zM45 626v167h166v-167h-166z" />
    <glyph glyph-name="hookabovecomb" unicode="&#x309;" 
d="M-37 654q22 22 31.5 39t9.5 40t-16.5 36.5t-44.5 13.5q-29 0 -56 -9v85q50 24 107 24q58 0 90 -28.5t32 -79.5q0 -88 -108 -159z" />
    <glyph glyph-name="uni030A" unicode="&#x30a;" 
d="M-87 650.5q-35 34.5 -35 87.5t35 87.5t90 34.5t90 -34.5t35 -87.5t-35 -87.5t-90 -34.5t-90 34.5zM31 707q11 12 11 31t-11 30.5t-28 11.5t-28.5 -11.5t-11.5 -30.5t11.5 -31t28.5 -12t28 12z" />
    <glyph glyph-name="uni030B" unicode="&#x30b;" 
d="M-189 616v15l49 152h184v-27l-113 -140h-120zM39 616v15l49 152h184v-27l-113 -140h-120z" />
    <glyph glyph-name="uni030C" unicode="&#x30c;" 
d="M-99 616l-118 152v15h150l62 -65h10l62 65h150v-15l-118 -152h-198z" />
    <glyph glyph-name="uni030F" unicode="&#x30f;" 
d="M-159 611l-113 140v27h184l49 -152v-15h-120zM69 611l-113 140v27h184l49 -152v-15h-120z" />
    <glyph glyph-name="uni0311" unicode="&#x311;" 
d="M-212 628q0 79 56 123t156 44t156 -44t56 -123v-10h-149v10q0 65 -63 65t-63 -65v-10h-149v10z" />
    <glyph glyph-name="uni0312" unicode="&#x312;" 
d="M-75 616v132l55 113h86l-32 -113h41v-132h-150z" />
    <glyph glyph-name="uni031B" unicode="&#x31b;" 
d="M-24 556h36q37 0 55 21t18 64v30h149v-30q0 -83 -56 -130t-156 -47h-46v92z" />
    <glyph glyph-name="dotbelowcomb" unicode="&#x323;" 
d="M-88 -224v154h176v-154h-176z" />
    <glyph glyph-name="uni0324" unicode="&#x324;" 
d="M-211 -227v167h167v-167h-167zM45 -227v167h166v-167h-166z" />
    <glyph glyph-name="uni0326" unicode="&#x326;" 
d="M-66 -315l32 113h-41v142h150v-142l-55 -113h-86z" />
    <glyph glyph-name="uni0327" unicode="&#x327;" 
d="M-116 -228v71q61 -14 112 -14q17 0 25.5 9t8.5 23t-8.5 23t-25.5 9h-44v107h95v-39q45 0 73 -24t28 -70q0 -54 -37.5 -83.5t-103.5 -29.5q-57 0 -123 18z" />
    <glyph glyph-name="uni0328" unicode="&#x328;" 
d="M-80 -217.5q-35 28.5 -35 80.5q0 38 20.5 75t53.5 62h88q-23 -16 -38.5 -39t-15.5 -49q0 -27 17 -42.5t47 -15.5q32 0 60 9v-85q-48 -24 -100 -24q-62 0 -97 28.5z" />
    <glyph glyph-name="uni032E" unicode="&#x32e;" 
d="M-156 -178q-56 39 -56 108v10h149v-10q0 -45 63 -45t63 45v10h149v-10q0 -69 -56 -108t-156 -39t-156 39z" />
    <glyph glyph-name="uni0331" unicode="&#x331;" 
d="M-179 -188v108h358v-108h-358z" />
    <glyph glyph-name="uni0335" unicode="&#x335;" 
d="M-194 320v98h388v-98h-388z" />
    <glyph glyph-name="pi" unicode="&#x3c0;" horiz-adv-x="696" 
d="M415.5 34q-42.5 44 -41.5 138l1 220h-75l-1 -392h-254v164h44l1 228h-70v164h635v-164h-70l-1 -184q0 -53 44 -53q24 0 48 12v-141q-24 -15 -57 -25.5t-71 -10.5q-90 0 -132.5 44z" />
    <glyph glyph-name="uni1E08" unicode="&#x1e08;" horiz-adv-x="722" 
d="M636 923l-163 -85h-197v15l109 96h251v-26zM464 468v72q0 38 -17 56t-51 18t-51 -18t-17 -56v-302q0 -38 17 -56t51 -18t51 18t17 56v81h240v-259q-35 -24 -102 -45t-147 -27v-27q45 0 73 -24t28 -70q0 -54 -37.5 -83.5t-103.5 -29.5q-57 0 -123 18v71q61 -14 112 -14
q17 0 25.5 9t8.5 23t-8.5 23t-25.5 9h-44v95q-346 23 -346 401q0 403 392 403q95 0 176.5 -23t121.5 -51v-250h-240z" />
    <glyph glyph-name="uni1E09" unicode="&#x1e09;" horiz-adv-x="562" 
d="M338 783h214v-27l-163 -140h-160v15zM94 495.5q80 74.5 222 74.5q69 0 132 -19t98 -43v-198h-172v18q0 33 -14 48.5t-44 15.5q-58 0 -58 -64v-86q0 -78 89 -78q83 0 193 18v-157q-29 -12 -76 -23t-100 -14v-27q45 0 73 -24t28 -70q0 -54 -37.5 -83.5t-103.5 -29.5
q-57 0 -123 18v71q61 -14 112 -14q17 0 25.5 9t8.5 23t-8.5 23t-25.5 9h-44v95q-121 12 -188 85.5t-67 204.5q0 143 80 217.5z" />
    <glyph glyph-name="uni1E0C" unicode="&#x1e0c;" horiz-adv-x="804" 
d="M20 164h50v449h-50v165h406q167 0 265.5 -91.5t98.5 -297.5t-98.5 -297.5t-265.5 -91.5h-406v164zM408 164q34 0 51 18t17 56v302q0 74 -68 74h-58v-450h58zM291 -224v154h176v-154h-176z" />
    <glyph glyph-name="uni1E0D" unicode="&#x1e0d;" horiz-adv-x="658" 
d="M61.5 62q-51.5 76 -51.5 216t51.5 216t153.5 76q51 0 90.5 -25t64.5 -57v126h-59v164h289v-614h44v-164h-274v68q-25 -32 -64.5 -57t-90.5 -25q-102 0 -153.5 76zM355.5 179.5q14.5 15.5 14.5 48.5v100q0 33 -14.5 48.5t-43.5 15.5t-43.5 -15.5t-14.5 -48.5v-100
q0 -33 14.5 -48.5t43.5 -15.5t43.5 15.5zM261 -224v154h176v-154h-176z" />
    <glyph glyph-name="uni1E0E" unicode="&#x1e0e;" horiz-adv-x="804" 
d="M20 164h50v449h-50v165h406q167 0 265.5 -91.5t98.5 -297.5t-98.5 -297.5t-265.5 -91.5h-406v164zM408 164q34 0 51 18t17 56v302q0 74 -68 74h-58v-450h58zM199 -188v108h358v-108h-358z" />
    <glyph glyph-name="uni1E0F" unicode="&#x1e0f;" horiz-adv-x="658" 
d="M61.5 62q-51.5 76 -51.5 216t51.5 216t153.5 76q51 0 90.5 -25t64.5 -57v126h-59v164h289v-614h44v-164h-274v68q-25 -32 -64.5 -57t-90.5 -25q-102 0 -153.5 76zM355.5 179.5q14.5 15.5 14.5 48.5v100q0 33 -14.5 48.5t-43.5 15.5t-43.5 -15.5t-14.5 -48.5v-100
q0 -33 14.5 -48.5t43.5 -15.5t43.5 15.5zM169 -188v108h358v-108h-358z" />
    <glyph glyph-name="uni1E14" unicode="&#x1e14;" horiz-adv-x="713" 
d="M20 0v164h50v450h-50v164h675v-302h-224v138h-121v-158h88v-114h-88v-178h121v158h224v-322h-675zM204 840v98h358v-98h-358zM318 993l-163 85v26h251l109 -96v-15h-197z" />
    <glyph glyph-name="uni1E15" unicode="&#x1e15;" horiz-adv-x="594" 
d="M94 60.5q-80 74.5 -80 217.5t80 217.5t222 74.5q141 0 203.5 -73.5t62.5 -182.5v-72h-324v-6q0 -37 22 -54.5t73 -17.5q61 0 116 9t96 23v-160q-35 -19 -102.5 -34.5t-146.5 -15.5q-142 0 -222 74.5zM374 352v12q0 34 -14.5 49t-43.5 15t-43.5 -15.5t-14.5 -48.5v-12h116
zM137 635v118h358v-118h-358zM251 813l-163 85v26h251l109 -96v-15h-197z" />
    <glyph glyph-name="uni1E16" unicode="&#x1e16;" horiz-adv-x="713" 
d="M20 0v164h50v450h-50v164h675v-302h-224v138h-121v-158h88v-114h-88v-178h121v158h224v-322h-675zM204 840v98h358v-98h-358zM253 993v15l109 96h251v-26l-163 -85h-197z" />
    <glyph glyph-name="uni1E17" unicode="&#x1e17;" horiz-adv-x="594" 
d="M94 60.5q-80 74.5 -80 217.5t80 217.5t222 74.5q141 0 203.5 -73.5t62.5 -182.5v-72h-324v-6q0 -37 22 -54.5t73 -17.5q61 0 116 9t96 23v-160q-35 -19 -102.5 -34.5t-146.5 -15.5q-142 0 -222 74.5zM374 352v12q0 34 -14.5 49t-43.5 15t-43.5 -15.5t-14.5 -48.5v-12h116
zM137 635v118h358v-118h-358zM186 813v15l109 96h251v-26l-163 -85h-197z" />
    <glyph glyph-name="uni1E1C" unicode="&#x1e1c;" horiz-adv-x="713" 
d="M20 0v164h50v450h-50v164h675v-302h-224v138h-121v-158h88v-114h-88v-178h121v158h224v-322h-675zM267 -228v71q61 -14 112 -14q17 0 25.5 9t8.5 23t-8.5 23t-25.5 9h-44v107h95v-39q45 0 73 -24t28 -70q0 -54 -37.5 -83.5t-103.5 -29.5q-57 0 -123 18zM227 877
q-56 39 -56 108v10h149v-10q0 -45 63 -45t63 45v10h149v-10q0 -69 -56 -108t-156 -39t-156 39z" />
    <glyph glyph-name="uni1E1D" unicode="&#x1e1d;" horiz-adv-x="594" 
d="M160 662q-56 44 -56 123v10h149v-10q0 -65 63 -65t63 65v10h149v-10q0 -79 -56 -123t-156 -44t-156 44zM258 242v-6q0 -37 22 -54.5t73 -17.5q61 0 116 9t96 23v-160q-30 -16 -83.5 -30t-118.5 -18v-27q45 0 73 -24t28 -70q0 -54 -37.5 -83.5t-103.5 -29.5q-57 0 -123 18
v71q61 -14 112 -14q17 0 25.5 9t8.5 23t-8.5 23t-25.5 9h-44v95q-120 12 -187 85.5t-67 204.5q0 143 80 217.5t222 74.5q141 0 203.5 -73.5t62.5 -182.5v-72h-324zM258 352h116v12q0 34 -14.5 49t-43.5 15t-43.5 -15.5t-14.5 -48.5v-12z" />
    <glyph glyph-name="uni1E20" unicode="&#x1e20;" horiz-adv-x="782" 
d="M774 250h-50v-200q-44 -25 -128.5 -44.5t-182.5 -19.5q-187 0 -293 98.5t-106 304.5q0 211 105.5 307t301.5 96q95 0 178 -20t125 -45v-239h-250v47q0 42 -17.5 60.5t-55.5 18.5t-55.5 -18.5t-17.5 -60.5v-292q0 -42 17.5 -60.5t55.5 -18.5t55.5 18.5t17.5 60.5v7h-54
v149h354v-149zM242 840v98h358v-98h-358z" />
    <glyph glyph-name="uni1E21" unicode="&#x1e21;" horiz-adv-x="654" 
d="M173.5 -226q-65.5 10 -101.5 23v164q106 -19 190 -19q57 0 82.5 17.5t25.5 65.5v43q-25 -32 -64.5 -57t-90.5 -25q-102 0 -153.5 76t-51.5 216t51.5 216t153.5 76q51 0 90.5 -25t64.5 -57v68h274v-164h-44v-352q0 -145 -72 -210.5t-217 -65.5q-72 0 -137.5 10z
M355.5 179.5q14.5 15.5 14.5 48.5v100q0 33 -14.5 48.5t-43.5 15.5t-43.5 -15.5t-14.5 -48.5v-100q0 -33 14.5 -48.5t43.5 -15.5t43.5 15.5zM163 635v118h358v-118h-358z" />
    <glyph glyph-name="uni1E24" unicode="&#x1e24;" horiz-adv-x="840" 
d="M820 614h-50v-450h50v-164h-378v164h48v165h-140v-165h48v-164h-378v164h50v450h-50v164h378v-164h-48v-152h140v152h-48v164h378v-164zM332 -224v154h176v-154h-176z" />
    <glyph glyph-name="uni1E25" unicode="&#x1e25;" horiz-adv-x="696" 
d="M682 164v-164h-316v164h42v164q0 33 -14 48.5t-42 15.5q-60 0 -60 -64v-164h42v-164h-316v164h44v450h-44v164h274v-300q37 46 80 69t100 23q83 0 124.5 -52t41.5 -143v-211h44zM262 -224v154h176v-154h-176z" />
    <glyph glyph-name="uni1E2A" unicode="&#x1e2a;" horiz-adv-x="840" 
d="M820 614h-50v-450h50v-164h-378v164h48v165h-140v-165h48v-164h-378v164h50v450h-50v164h378v-164h-48v-152h140v152h-48v164h378v-164zM264 -178q-56 39 -56 108v10h149v-10q0 -45 63 -45t63 45v10h149v-10q0 -69 -56 -108t-156 -39t-156 39z" />
    <glyph glyph-name="uni1E2B" unicode="&#x1e2b;" horiz-adv-x="696" 
d="M682 164v-164h-316v164h42v164q0 33 -14 48.5t-42 15.5q-60 0 -60 -64v-164h42v-164h-316v164h44v450h-44v164h274v-300q37 46 80 69t100 23q83 0 124.5 -52t41.5 -143v-211h44zM194 -178q-56 39 -56 108v10h149v-10q0 -45 63 -45t63 45v10h149v-10q0 -69 -56 -108
t-156 -39t-156 39z" />
    <glyph glyph-name="uni1E2E" unicode="&#x1e2e;" horiz-adv-x="420" 
d="M20 0v164h50v450h-50v164h380v-164h-50v-450h50v-164h-380zM-1 838v127h184v-127h-184zM237 838v127h184v-127h-184zM80 1015v15l109 96h251v-26l-163 -85h-197z" />
    <glyph glyph-name="uni1E2F" unicode="&#x1e2f;" horiz-adv-x="442" 
d="M72 0v164h44v228h-44v164h274v-392h44v-164h-318zM10 626v167h167v-167h-167zM266 626v167h166v-167h-166zM91 853v15l109 96h251v-26l-163 -85h-197z" />
    <glyph glyph-name="uni1E36" unicode="&#x1e36;" horiz-adv-x="653" 
d="M20 0v164h50v450h-50v164h422v-164h-92v-450h90v92h199v-256h-619zM239 -224v154h176v-154h-176z" />
    <glyph glyph-name="uni1E37" unicode="&#x1e37;" horiz-adv-x="350" 
d="M18 -1v165h44v450h-44v164h274v-614h44v-165h-318zM89 -224v154h176v-154h-176z" />
    <glyph glyph-name="uni1E3A" unicode="&#x1e3a;" horiz-adv-x="653" 
d="M20 0v164h50v450h-50v164h422v-164h-92v-450h90v92h199v-256h-619zM147 -188v108h358v-108h-358z" />
    <glyph glyph-name="uni1E3B" unicode="&#x1e3b;" horiz-adv-x="350" 
d="M18 -1v165h44v450h-44v164h274v-614h44v-165h-318zM-3 -188v108h358v-108h-358z" />
    <glyph glyph-name="uni1E42" unicode="&#x1e42;" horiz-adv-x="1143" 
d="M1123 614h-50v-450h50v-164h-378v164h48v350l-170 -514h-148l-175 509v-345h48v-164h-328v164h50v450h-50v164h458l104 -312l100 312h441v-164zM461 -224v154h176v-154h-176z" />
    <glyph glyph-name="uni1E43" unicode="&#x1e43;" horiz-adv-x="1042" 
d="M1028 164v-164h-316v164h42v164q0 33 -14 48.5t-42 15.5q-60 0 -60 -64v-164h42v-164h-314v164h42v164q0 33 -14 48.5t-42 15.5q-60 0 -60 -64v-164h42v-164h-316v164h44v228h-44v164h274v-78q72 92 180 92q61 0 99.5 -28.5t54.5 -80.5q36 52 82.5 80t109.5 28
q83 0 124.5 -52t41.5 -143v-210h44zM435 -224v154h176v-154h-176z" />
    <glyph glyph-name="uni1E44" unicode="&#x1e44;" horiz-adv-x="942" 
d="M596 778h328v-164h-50v-614h-281l-293 451v-287h48v-164h-328v164h50v450h-50v164h361l263 -401v237h-48v164zM389 848v127h184v-127h-184z" />
    <glyph glyph-name="uni1E45" unicode="&#x1e45;" horiz-adv-x="696" 
d="M682 164v-164h-316v164h42v164q0 33 -14 48.5t-42 15.5q-60 0 -60 -64v-164h42v-164h-316v164h44v228h-44v164h274v-78q72 92 180 92q83 0 124.5 -52t41.5 -143v-211h44zM263 626v167h176v-167h-176z" />
    <glyph glyph-name="uni1E46" unicode="&#x1e46;" horiz-adv-x="942" 
d="M596 778h328v-164h-50v-614h-281l-293 451v-287h48v-164h-328v164h50v450h-50v164h361l263 -401v237h-48v164zM385 -224v154h176v-154h-176z" />
    <glyph glyph-name="uni1E47" unicode="&#x1e47;" horiz-adv-x="696" 
d="M682 164v-164h-316v164h42v164q0 33 -14 48.5t-42 15.5q-60 0 -60 -64v-164h42v-164h-316v164h44v228h-44v164h274v-78q72 92 180 92q83 0 124.5 -52t41.5 -143v-211h44zM262 -223v154h176v-154h-176z" />
    <glyph glyph-name="uni1E48" unicode="&#x1e48;" horiz-adv-x="942" 
d="M596 778h328v-164h-50v-614h-281l-293 451v-287h48v-164h-328v164h50v450h-50v164h361l263 -401v237h-48v164zM293 -188v108h358v-108h-358z" />
    <glyph glyph-name="uni1E49" unicode="&#x1e49;" horiz-adv-x="696" 
d="M682 164v-164h-316v164h42v164q0 33 -14 48.5t-42 15.5q-60 0 -60 -64v-164h42v-164h-316v164h44v228h-44v164h274v-78q72 92 180 92q83 0 124.5 -52t41.5 -143v-211h44zM170 -187v108h358v-108h-358z" />
    <glyph glyph-name="uni1E4C" unicode="&#x1e4c;" horiz-adv-x="792" 
d="M113.5 82q-99.5 96 -99.5 307t99.5 307t282.5 96t282.5 -96t99.5 -307t-99.5 -307t-282.5 -96t-282.5 96zM447 182q17 18 17 56v302q0 38 -17 56t-51 18t-51 -18t-17 -56v-302q0 -39 17 -56.5t51 -17.5t51 18zM452.5 843q-28.5 5 -68.5 15q-42 9 -66 13.5t-48 4.5
q-26 0 -43 -10.5t-17 -26.5h-56q0 84 27.5 120.5t102.5 36.5q33 0 63 -5t70 -15q38 -8 60 -12t45 -4q28 0 44 9t16 26h56q0 -56 -11 -89.5t-39 -50.5t-80 -17q-27 0 -55.5 5zM266 1056v15l109 96h251v-26l-163 -85h-197z" />
    <glyph glyph-name="uni1E4D" unicode="&#x1e4d;" horiz-adv-x="632" 
d="M94 60.5q-80 74.5 -80 217.5t80 217.5t222 74.5q144 0 223 -75.5t79 -216.5q0 -143 -80 -217.5t-222 -74.5t-222 74.5zM359.5 179.5q14.5 15.5 14.5 48.5v100q0 33 -14.5 48.5t-43.5 15.5t-43.5 -15.5t-14.5 -48.5v-100q0 -33 14.5 -48.5t43.5 -15.5t43.5 15.5zM357 623
q-28 7 -65 20q-31 11 -51.5 16t-39.5 5t-30.5 -10t-11.5 -27h-56q0 86 25.5 128.5t94.5 42.5q31 0 56.5 -6.5t60.5 -18.5q30 -11 50 -16t41 -5q22 0 32 10.5t10 24.5h56q0 -87 -22.5 -129t-90.5 -42q-31 0 -59 7zM186 853v15l109 96h251v-26l-163 -85h-197z" />
    <glyph glyph-name="uni1E4E" unicode="&#x1e4e;" horiz-adv-x="792" 
d="M113.5 82q-99.5 96 -99.5 307t99.5 307t282.5 96t282.5 -96t99.5 -307t-99.5 -307t-282.5 -96t-282.5 96zM447 182q17 18 17 56v302q0 38 -17 56t-51 18t-51 -18t-17 -56v-302q0 -39 17 -56.5t51 -17.5t51 18zM452.5 843q-28.5 5 -68.5 15q-42 9 -66 13.5t-48 4.5
q-26 0 -43 -10.5t-17 -26.5h-56q0 84 27.5 120.5t102.5 36.5q33 0 63 -5t70 -15q38 -8 60 -12t45 -4q28 0 44 9t16 26h56q0 -56 -11 -89.5t-39 -50.5t-80 -17q-27 0 -55.5 5zM185 1056v127h184v-127h-184zM423 1056v127h184v-127h-184z" />
    <glyph glyph-name="uni1E4F" unicode="&#x1e4f;" horiz-adv-x="632" 
d="M94 60.5q-80 74.5 -80 217.5t80 217.5t222 74.5q144 0 223 -75.5t79 -216.5q0 -143 -80 -217.5t-222 -74.5t-222 74.5zM359.5 179.5q14.5 15.5 14.5 48.5v100q0 33 -14.5 48.5t-43.5 15.5t-43.5 -15.5t-14.5 -48.5v-100q0 -33 14.5 -48.5t43.5 -15.5t43.5 15.5zM357 623
q-28 7 -65 20q-31 11 -51.5 16t-39.5 5t-30.5 -10t-11.5 -27h-56q0 86 25.5 128.5t94.5 42.5q31 0 56.5 -6.5t60.5 -18.5q30 -11 50 -16t41 -5q22 0 32 10.5t10 24.5h56q0 -87 -22.5 -129t-90.5 -42q-31 0 -59 7zM105 853v127h184v-127h-184zM343 853v127h184v-127h-184z
" />
    <glyph glyph-name="uni1E50" unicode="&#x1e50;" horiz-adv-x="792" 
d="M113.5 82q-99.5 96 -99.5 307t99.5 307t282.5 96t282.5 -96t99.5 -307t-99.5 -307t-282.5 -96t-282.5 96zM447 182q17 18 17 56v302q0 38 -17 56t-51 18t-51 -18t-17 -56v-302q0 -39 17 -56.5t51 -17.5t51 18zM217 840v98h358v-98h-358zM331 993l-163 85v26h251l109 -96
v-15h-197z" />
    <glyph glyph-name="uni1E51" unicode="&#x1e51;" horiz-adv-x="632" 
d="M94 60.5q-80 74.5 -80 217.5t80 217.5t222 74.5q144 0 223 -75.5t79 -216.5q0 -143 -80 -217.5t-222 -74.5t-222 74.5zM359.5 179.5q14.5 15.5 14.5 48.5v100q0 33 -14.5 48.5t-43.5 15.5t-43.5 -15.5t-14.5 -48.5v-100q0 -33 14.5 -48.5t43.5 -15.5t43.5 15.5zM137 635
v118h358v-118h-358zM251 813l-163 85v26h251l109 -96v-15h-197z" />
    <glyph glyph-name="uni1E52" unicode="&#x1e52;" horiz-adv-x="792" 
d="M113.5 82q-99.5 96 -99.5 307t99.5 307t282.5 96t282.5 -96t99.5 -307t-99.5 -307t-282.5 -96t-282.5 96zM447 182q17 18 17 56v302q0 38 -17 56t-51 18t-51 -18t-17 -56v-302q0 -39 17 -56.5t51 -17.5t51 18zM217 840v98h358v-98h-358zM266 993v15l109 96h251v-26
l-163 -85h-197z" />
    <glyph glyph-name="uni1E53" unicode="&#x1e53;" horiz-adv-x="632" 
d="M94 60.5q-80 74.5 -80 217.5t80 217.5t222 74.5q144 0 223 -75.5t79 -216.5q0 -143 -80 -217.5t-222 -74.5t-222 74.5zM359.5 179.5q14.5 15.5 14.5 48.5v100q0 33 -14.5 48.5t-43.5 15.5t-43.5 -15.5t-14.5 -48.5v-100q0 -33 14.5 -48.5t43.5 -15.5t43.5 15.5zM137 635
v118h358v-118h-358zM186 813v15l109 96h251v-26l-163 -85h-197z" />
    <glyph glyph-name="uni1E5A" unicode="&#x1e5a;" horiz-adv-x="800" 
d="M20 164h50v450h-50v164h459q129 0 197 -53t68 -172q0 -67 -27 -116t-77 -68l1 -10q96 -15 96 -118v-77h47v-164h-317v235q0 39 -11.5 59t-36 27t-69.5 7v-164h66v-164h-396v164zM404 450q29 0 43.5 15.5t14.5 48.5v36q0 33 -14.5 48.5t-43.5 15.5h-54v-164h54zM328 -224
v154h176v-154h-176z" />
    <glyph glyph-name="uni1E5B" unicode="&#x1e5b;" horiz-adv-x="527" 
d="M483 566q18 -4 30 -10v-191q-41 17 -88 17q-63 0 -97 -33t-34 -98v-87h90v-164h-364v164h44v228h-44v164h274v-73q28 42 64 64.5t87 22.5q20 0 38 -4zM113 -224v154h176v-154h-176z" />
    <glyph glyph-name="uni1E5E" unicode="&#x1e5e;" horiz-adv-x="800" 
d="M20 164h50v450h-50v164h459q129 0 197 -53t68 -172q0 -67 -27 -116t-77 -68l1 -10q96 -15 96 -118v-77h47v-164h-317v235q0 39 -11.5 59t-36 27t-69.5 7v-164h66v-164h-396v164zM404 450q29 0 43.5 15.5t14.5 48.5v36q0 33 -14.5 48.5t-43.5 15.5h-54v-164h54zM236 -188
v108h358v-108h-358z" />
    <glyph glyph-name="uni1E5F" unicode="&#x1e5f;" horiz-adv-x="527" 
d="M483 566q18 -4 30 -10v-191q-41 17 -88 17q-63 0 -97 -33t-34 -98v-87h90v-164h-364v164h44v228h-44v164h274v-73q28 42 64 64.5t87 22.5q20 0 38 -4zM21 -188v108h358v-108h-358z" />
    <glyph glyph-name="uni1E60" unicode="&#x1e60;" horiz-adv-x="674" 
d="M148.5 2.5q-85.5 16.5 -131.5 37.5v198h220q0 -31 14 -45t51 -14q31 0 44.5 9.5t13.5 28.5q0 16 -13 27.5t-45 23.5l-86 30q-111 42 -159.5 99t-48.5 154q0 118 77.5 179.5t258.5 61.5q87 0 163.5 -17.5t123.5 -46.5v-179h-200q0 50 -62 50q-30 0 -42.5 -7.5t-12.5 -26.5
q0 -17 14.5 -27t47.5 -21l87 -30q106 -36 154.5 -93.5t48.5 -150.5q0 -127 -85.5 -192t-250.5 -65q-96 0 -181.5 16.5zM252 848v127h184v-127h-184z" />
    <glyph glyph-name="uni1E61" unicode="&#x1e61;" horiz-adv-x="519" 
d="M18 26v148h162v-10q0 -48 61 -48q54 0 54 37q0 20 -15.5 30t-54.5 17l-50 9q-157 28 -157 178q0 87 66 135t178 48q125 0 211 -42v-139h-152v10q0 20 -13.5 30.5t-39.5 10.5q-50 0 -50 -32q0 -17 14 -26t51 -17l57 -11q89 -17 127 -63t38 -118q0 -91 -63.5 -139
t-180.5 -48q-126 0 -243 40zM164 626v167h176v-167h-176z" />
    <glyph glyph-name="uni1E62" unicode="&#x1e62;" horiz-adv-x="674" 
d="M148.5 2.5q-85.5 16.5 -131.5 37.5v198h220q0 -31 14 -45t51 -14q31 0 44.5 9.5t13.5 28.5q0 16 -13 27.5t-45 23.5l-86 30q-111 42 -159.5 99t-48.5 154q0 118 77.5 179.5t258.5 61.5q87 0 163.5 -17.5t123.5 -46.5v-179h-200q0 50 -62 50q-30 0 -42.5 -7.5t-12.5 -26.5
q0 -17 14.5 -27t47.5 -21l87 -30q106 -36 154.5 -93.5t48.5 -150.5q0 -127 -85.5 -192t-250.5 -65q-96 0 -181.5 16.5zM249 -224v154h176v-154h-176z" />
    <glyph glyph-name="uni1E63" unicode="&#x1e63;" horiz-adv-x="519" 
d="M18 26v148h162v-10q0 -48 61 -48q54 0 54 37q0 20 -15.5 30t-54.5 17l-50 9q-157 28 -157 178q0 87 66 135t178 48q125 0 211 -42v-139h-152v10q0 20 -13.5 30.5t-39.5 10.5q-50 0 -50 -32q0 -17 14 -26t51 -17l57 -11q89 -17 127 -63t38 -118q0 -91 -63.5 -139
t-180.5 -48q-126 0 -243 40zM173 -224v154h176v-154h-176z" />
    <glyph glyph-name="uni1E64" unicode="&#x1e64;" horiz-adv-x="674" 
d="M148.5 2.5q-85.5 16.5 -131.5 37.5v198h220q0 -31 14 -45t51 -14q31 0 44.5 9.5t13.5 28.5q0 16 -13 27.5t-45 23.5l-86 30q-111 42 -159.5 99t-48.5 154q0 118 77.5 179.5t258.5 61.5q87 0 163.5 -17.5t123.5 -46.5v-179h-200q0 50 -62 50q-30 0 -42.5 -7.5t-12.5 -26.5
q0 -17 14.5 -27t47.5 -21l87 -30q106 -36 154.5 -93.5t48.5 -150.5q0 -127 -85.5 -192t-250.5 -65q-96 0 -181.5 16.5zM214 838v15l109 96h251v-26l-163 -85h-197zM252 1019v127h184v-127h-184z" />
    <glyph glyph-name="uni1E65" unicode="&#x1e65;" horiz-adv-x="519" 
d="M18 26v148h162v-10q0 -48 61 -48q54 0 54 37q0 20 -15.5 30t-54.5 17l-50 9q-157 28 -157 178q0 87 66 135t178 48q125 0 211 -42v-139h-152v10q0 20 -13.5 30.5t-39.5 10.5q-50 0 -50 -32q0 -17 14 -26t51 -17l57 -11q89 -17 127 -63t38 -118q0 -91 -63.5 -139
t-180.5 -48q-126 0 -243 40zM165 616v15l109 152h214v-27l-163 -140h-160zM160 833v127h184v-127h-184z" />
    <glyph glyph-name="uni1E66" unicode="&#x1e66;" horiz-adv-x="674" 
d="M148.5 2.5q-85.5 16.5 -131.5 37.5v198h220q0 -31 14 -45t51 -14q31 0 44.5 9.5t13.5 28.5q0 16 -13 27.5t-45 23.5l-86 30q-111 42 -159.5 99t-48.5 154q0 118 77.5 179.5t258.5 61.5q87 0 163.5 -17.5t123.5 -46.5v-179h-200q0 50 -62 50q-30 0 -42.5 -7.5t-12.5 -26.5
q0 -17 14.5 -27t47.5 -21l87 -30q106 -36 154.5 -93.5t48.5 -150.5q0 -127 -85.5 -192t-250.5 -65q-96 0 -181.5 16.5zM219 838l-127 126v15h154l93 -81h10l93 81h154v-15l-127 -126h-250zM252 1029v127h184v-127h-184z" />
    <glyph glyph-name="uni1E67" unicode="&#x1e67;" horiz-adv-x="519" 
d="M18 26v148h162v-10q0 -48 61 -48q54 0 54 37q0 20 -15.5 30t-54.5 17l-50 9q-157 28 -157 178q0 87 66 135t178 48q125 0 211 -42v-139h-152v10q0 20 -13.5 30.5t-39.5 10.5q-50 0 -50 -32q0 -17 14 -26t51 -17l57 -11q89 -17 127 -63t38 -118q0 -91 -63.5 -139
t-180.5 -48q-126 0 -243 40zM153 616l-118 152v15h150l62 -65h10l62 65h150v-15l-118 -152h-198zM160 843v127h184v-127h-184z" />
    <glyph glyph-name="uni1E68" unicode="&#x1e68;" horiz-adv-x="674" 
d="M148.5 2.5q-85.5 16.5 -131.5 37.5v198h220q0 -31 14 -45t51 -14q31 0 44.5 9.5t13.5 28.5q0 16 -13 27.5t-45 23.5l-86 30q-111 42 -159.5 99t-48.5 154q0 118 77.5 179.5t258.5 61.5q87 0 163.5 -17.5t123.5 -46.5v-179h-200q0 50 -62 50q-30 0 -42.5 -7.5t-12.5 -26.5
q0 -17 14.5 -27t47.5 -21l87 -30q106 -36 154.5 -93.5t48.5 -150.5q0 -127 -85.5 -192t-250.5 -65q-96 0 -181.5 16.5zM249 -224v154h176v-154h-176zM252 848v127h184v-127h-184z" />
    <glyph glyph-name="uni1E69" unicode="&#x1e69;" horiz-adv-x="519" 
d="M18 26v148h162v-10q0 -48 61 -48q54 0 54 37q0 20 -15.5 30t-54.5 17l-50 9q-157 28 -157 178q0 87 66 135t178 48q125 0 211 -42v-139h-152v10q0 20 -13.5 30.5t-39.5 10.5q-50 0 -50 -32q0 -17 14 -26t51 -17l57 -11q89 -17 127 -63t38 -118q0 -91 -63.5 -139
t-180.5 -48q-126 0 -243 40zM173 -224v154h176v-154h-176zM164 626v167h176v-167h-176z" />
    <glyph glyph-name="uni1E6C" unicode="&#x1e6c;" horiz-adv-x="780" 
d="M766 536h-172v78h-64v-450h70v-164h-420v164h70v450h-64v-78h-172v242h752v-242zM302 -224v154h176v-154h-176z" />
    <glyph glyph-name="uni1E6D" unicode="&#x1e6d;" horiz-adv-x="451" 
d="M105.5 37.5q-53.5 51.5 -53.5 173.5v181h-44v164q38 0 57 19.5t19 53.5v45h212v-118h135v-164h-135v-164q0 -33 14.5 -48.5t43.5 -15.5q38 0 83 9v-157q-28 -11 -75.5 -20.5t-96.5 -9.5q-106 0 -159.5 51.5zM163 -224v154h176v-154h-176z" />
    <glyph glyph-name="uni1E6E" unicode="&#x1e6e;" horiz-adv-x="780" 
d="M766 536h-172v78h-64v-450h70v-164h-420v164h70v450h-64v-78h-172v242h752v-242zM210 -188v108h358v-108h-358z" />
    <glyph glyph-name="uni1E6F" unicode="&#x1e6f;" horiz-adv-x="451" 
d="M105.5 37.5q-53.5 51.5 -53.5 173.5v181h-44v164q38 0 57 19.5t19 53.5v45h212v-118h135v-164h-135v-164q0 -33 14.5 -48.5t43.5 -15.5q38 0 83 9v-157q-28 -11 -75.5 -20.5t-96.5 -9.5q-106 0 -159.5 51.5zM71 -188v108h358v-108h-358z" />
    <glyph glyph-name="uni1E78" unicode="&#x1e78;" horiz-adv-x="781" 
d="M151.5 55q-85.5 69 -85.5 224v335h-50v164h370v-164h-40v-386q0 -33 14.5 -48.5t43.5 -15.5t43.5 15.5t14.5 48.5v386h-40v164h343v-164h-50v-335q0 -155 -83 -224t-238 -69q-157 0 -242.5 69zM458.5 843q-28.5 5 -68.5 15q-42 9 -66 13.5t-48 4.5q-26 0 -43 -10.5
t-17 -26.5h-56q0 84 27.5 120.5t102.5 36.5q33 0 63 -5t70 -15q38 -8 60 -12t45 -4q28 0 44 9t16 26h56q0 -56 -11 -89.5t-39 -50.5t-80 -17q-27 0 -55.5 5zM272 1056v15l109 96h251v-26l-163 -85h-197z" />
    <glyph glyph-name="uni1E79" unicode="&#x1e79;" horiz-adv-x="686" 
d="M676 164v-164h-274v78q-72 -92 -180 -92q-83 0 -124.5 52t-41.5 143v211h-44v164h274v-328q0 -33 14.5 -48.5t43.5 -15.5t43.5 15.5t14.5 48.5v164h-54v164h284v-392h44zM358 623q-28 7 -65 20q-31 11 -51.5 16t-39.5 5t-30.5 -10t-11.5 -27h-56q0 86 25.5 128.5
t94.5 42.5q31 0 56.5 -6.5t60.5 -18.5q30 -11 50 -16t41 -5q22 0 32 10.5t10 24.5h56q0 -87 -22.5 -129t-90.5 -42q-31 0 -59 7zM187 853v15l109 96h251v-26l-163 -85h-197z" />
    <glyph glyph-name="uni1E7A" unicode="&#x1e7a;" horiz-adv-x="781" 
d="M151.5 55q-85.5 69 -85.5 224v335h-50v164h370v-164h-40v-386q0 -33 14.5 -48.5t43.5 -15.5t43.5 15.5t14.5 48.5v386h-40v164h343v-164h-50v-335q0 -155 -83 -224t-238 -69q-157 0 -242.5 69zM223 840v98h358v-98h-358zM191 993v127h184v-127h-184zM429 993v127h184
v-127h-184z" />
    <glyph glyph-name="uni1E7B" unicode="&#x1e7b;" horiz-adv-x="686" 
d="M676 164v-164h-274v78q-72 -92 -180 -92q-83 0 -124.5 52t-41.5 143v211h-44v164h274v-328q0 -33 14.5 -48.5t43.5 -15.5t43.5 15.5t14.5 48.5v164h-54v164h284v-392h44zM138 635v118h358v-118h-358zM106 813v127h184v-127h-184zM344 813v127h184v-127h-184z" />
    <glyph glyph-name="Wgrave" unicode="&#x1e80;" horiz-adv-x="1207" 
d="M875 778h320v-164h-40l-149 -614h-299l-91 432h-10l-96 -432h-299l-159 614h-40v164h370v-164h-38l39 -255h10l95 419h288l88 -419h10l39 255h-38v164zM567 838l-163 85v26h251l109 -96v-15h-197z" />
    <glyph glyph-name="wgrave" unicode="&#x1e81;" horiz-adv-x="956" 
d="M184 0l-132 392h-42v164h309v-164h-42l36 -156h10l73 320h184l73 -320h10l35 156h-42v164h290v-164h-42l-127 -392h-243l-55 278h-10l-55 -278h-230zM410 616l-163 140v27h214l109 -152v-15h-160z" />
    <glyph glyph-name="Wacute" unicode="&#x1e82;" horiz-adv-x="1207" 
d="M875 778h320v-164h-40l-149 -614h-299l-91 432h-10l-96 -432h-299l-159 614h-40v164h370v-164h-38l39 -255h10l95 419h288l88 -419h10l39 255h-38v164zM502 838v15l109 96h251v-26l-163 -85h-197z" />
    <glyph glyph-name="wacute" unicode="&#x1e83;" horiz-adv-x="956" 
d="M184 0l-132 392h-42v164h309v-164h-42l36 -156h10l73 320h184l73 -320h10l35 156h-42v164h290v-164h-42l-127 -392h-243l-55 278h-10l-55 -278h-230zM401 616v15l109 152h214v-27l-163 -140h-160z" />
    <glyph glyph-name="Wdieresis" unicode="&#x1e84;" horiz-adv-x="1207" 
d="M875 778h320v-164h-40l-149 -614h-299l-91 432h-10l-96 -432h-299l-159 614h-40v164h370v-164h-38l39 -255h10l95 419h288l88 -419h10l39 255h-38v164zM421 838v127h184v-127h-184zM659 838v127h184v-127h-184z" />
    <glyph glyph-name="wdieresis" unicode="&#x1e85;" horiz-adv-x="956" 
d="M184 0l-132 392h-42v164h309v-164h-42l36 -156h10l73 320h184l73 -320h10l35 156h-42v164h290v-164h-42l-127 -392h-243l-55 278h-10l-55 -278h-230zM277 626v167h167v-167h-167zM533 626v167h166v-167h-166z" />
    <glyph glyph-name="uni1E8E" unicode="&#x1e8e;" horiz-adv-x="776" 
d="M457 778h307v-164h-40l-193 -346v-104h50v-164h-380v164h50v104l-199 346h-40v164h387v-164h-35l59 -155h10l59 155h-35v164zM336 848v127h184v-127h-184z" />
    <glyph glyph-name="uni1E8F" unicode="&#x1e8f;" horiz-adv-x="632" 
d="M620 556v-164h-38l-131 -347q-49 -131 -112 -196.5t-166 -65.5q-42 0 -85 8.5t-78 23.5v181h138v-10q0 -25 26 -25q23 0 35 22l-158 409h-38v164h297v-164h-34l52 -156l48 156h-34v164h278zM238 626v167h176v-167h-176z" />
    <glyph glyph-name="uni1E92" unicode="&#x1e92;" horiz-adv-x="689" 
d="M476 246h199v-246h-661v144l308 470h-104v-82h-199v246h640v-144l-307 -470h124v82zM257 -224v154h176v-154h-176z" />
    <glyph glyph-name="uni1E93" unicode="&#x1e93;" horiz-adv-x="568" 
d="M14 0v149l244 243h-89v-36h-149v200h525v-143l-238 -249h96v56h151v-220h-540zM196 -224v154h176v-154h-176z" />
    <glyph glyph-name="uni1E97" unicode="&#x1e97;" horiz-adv-x="451" 
d="M105.5 37.5q-53.5 51.5 -53.5 173.5v181h-44v164q38 0 57 19.5t19 53.5v45h212v-118h135v-164h-135v-164q0 -33 14.5 -48.5t43.5 -15.5q38 0 83 9v-157q-28 -11 -75.5 -20.5t-96.5 -9.5q-106 0 -159.5 51.5zM-21 744v167h167v-167h-167zM235 744v167h166v-167h-166z" />
    <glyph glyph-name="uni1E9E" unicode="&#x1e9e;" horiz-adv-x="837" 
d="M825 218q0 -112 -64 -172t-180 -60q-48 0 -98 10.5t-83 23.5v142q17 -4 39 -4q42 0 67 22t25 67q0 50 -34 74t-97 24v100l112 156q-22 13 -58 13q-57 0 -80.5 -27t-23.5 -82v-505h-332v164h50l2 332q1 153 91.5 224.5t269.5 71.5q168 0 307 -68v-133l-103 -143
q190 -38 190 -230z" />
    <glyph glyph-name="uni1EA0" unicode="&#x1ea0;" horiz-adv-x="806" 
d="M754 164h40v-164h-392v164h60l-16 80h-136l-16 -80h60v-164h-342v164h40l169 614h364zM332 350h92l-41 199h-10zM290 -224v154h176v-154h-176z" />
    <glyph glyph-name="uni1EA1" unicode="&#x1ea1;" horiz-adv-x="615" 
d="M601 164v-164h-264v68q-22 -32 -61.5 -57t-96.5 -25q-75 0 -118 40t-43 113q0 189 321 194q-3 34 -26 46.5t-78 12.5q-45 0 -96.5 -9.5t-94.5 -25.5v184q53 13 115 21t121 8q149 0 213 -54t64 -167v-185h44zM337 234q-45 0 -69.5 -12t-24.5 -40q0 -17 10.5 -27.5
t29.5 -10.5q26 0 40 22t14 62v6zM222 -224v154h176v-154h-176z" />
    <glyph glyph-name="uni1EA2" unicode="&#x1ea2;" horiz-adv-x="806" 
d="M754 164h40v-164h-392v164h60l-16 80h-136l-16 -80h60v-164h-342v164h40l169 614h364zM332 350h92l-41 199h-10zM367 865q17 18 24 31.5t7 32.5q0 21 -13.5 34t-37.5 13q-21 0 -45 -6v75q45 15 92 15q54 0 84.5 -26.5t30.5 -73.5q0 -73 -101 -137z" />
    <glyph glyph-name="uni1EA3" unicode="&#x1ea3;" horiz-adv-x="615" 
d="M601 164v-164h-264v68q-22 -32 -61.5 -57t-96.5 -25q-75 0 -118 40t-43 113q0 189 321 194q-3 34 -26 46.5t-78 12.5q-45 0 -96.5 -9.5t-94.5 -25.5v184q53 13 115 21t121 8q149 0 213 -54t64 -167v-185h44zM337 234q-45 0 -69.5 -12t-24.5 -40q0 -17 10.5 -27.5
t29.5 -10.5q26 0 40 22t14 62v6zM278 654q22 22 31.5 39t9.5 40t-16.5 36.5t-44.5 13.5q-29 0 -56 -9v85q50 24 107 24q58 0 90 -28.5t32 -79.5q0 -88 -108 -159z" />
    <glyph glyph-name="uni1EA4" unicode="&#x1ea4;" horiz-adv-x="806" 
d="M754 164h40v-164h-392v164h60l-16 80h-136l-16 -80h60v-164h-342v164h40l169 614h364zM332 350h92l-41 199h-10zM613 1059h171v-26l-100 -95h-120v15zM313 984h180l117 -136v-15h-134l-73 72l-73 -72h-134v15z" />
    <glyph glyph-name="uni1EA5" unicode="&#x1ea5;" horiz-adv-x="615" 
d="M601 164v-164h-264v68q-22 -32 -61.5 -57t-96.5 -25q-75 0 -118 40t-43 113q0 189 321 194q-3 34 -26 46.5t-78 12.5q-45 0 -96.5 -9.5t-94.5 -25.5v184q53 13 115 21t121 8q149 0 213 -54t64 -167v-185h44zM337 234q-45 0 -69.5 -12t-24.5 -40q0 -17 10.5 -27.5
t29.5 -10.5q26 0 40 22t14 62v6zM525 837h171v-26l-100 -95h-120v15zM225 762h180l117 -136v-15h-134l-73 72l-73 -72h-134v15z" />
    <glyph glyph-name="uni1EA6" unicode="&#x1ea6;" horiz-adv-x="806" 
d="M754 164h40v-164h-392v164h60l-16 80h-136l-16 -80h60v-164h-342v164h40l169 614h364zM332 350h92l-41 199h-10zM685 1054l49 -106v-15h-120l-100 95v26h171zM313 984h180l117 -136v-15h-134l-73 72l-73 -72h-134v15z" />
    <glyph glyph-name="uni1EA7" unicode="&#x1ea7;" horiz-adv-x="615" 
d="M601 164v-164h-264v68q-22 -32 -61.5 -57t-96.5 -25q-75 0 -118 40t-43 113q0 189 321 194q-3 34 -26 46.5t-78 12.5q-45 0 -96.5 -9.5t-94.5 -25.5v184q53 13 115 21t121 8q149 0 213 -54t64 -167v-185h44zM337 234q-45 0 -69.5 -12t-24.5 -40q0 -17 10.5 -27.5
t29.5 -10.5q26 0 40 22t14 62v6zM597 832l49 -106v-15h-120l-100 95v26h171zM225 762h180l117 -136v-15h-134l-73 72l-73 -72h-134v15z" />
    <glyph glyph-name="uni1EA8" unicode="&#x1ea8;" horiz-adv-x="806" 
d="M754 164h40v-164h-392v164h60l-16 80h-136l-16 -80h60v-164h-342v164h40l169 614h364zM332 350h92l-41 199h-10zM663.5 1148.5q30.5 -26.5 30.5 -73.5q0 -73 -101 -137l-41 42q17 18 24 31.5t7 32.5q0 21 -13.5 34t-37.5 13q-21 0 -45 -6v75q45 15 92 15q54 0 84.5 -26.5
zM313 984h180l117 -136v-15h-134l-73 72l-73 -72h-134v15z" />
    <glyph glyph-name="uni1EA9" unicode="&#x1ea9;" horiz-adv-x="615" 
d="M601 164v-164h-264v68q-22 -32 -61.5 -57t-96.5 -25q-75 0 -118 40t-43 113q0 189 321 194q-3 34 -26 46.5t-78 12.5q-45 0 -96.5 -9.5t-94.5 -25.5v184q53 13 115 21t121 8q149 0 213 -54t64 -167v-185h44zM337 234q-45 0 -69.5 -12t-24.5 -40q0 -17 10.5 -27.5
t29.5 -10.5q26 0 40 22t14 62v6zM575.5 926.5q30.5 -26.5 30.5 -73.5q0 -73 -101 -137l-41 42q17 18 24 31.5t7 32.5q0 21 -13.5 34t-37.5 13q-21 0 -45 -6v75q45 15 92 15q54 0 84.5 -26.5zM225 762h180l117 -136v-15h-134l-73 72l-73 -72h-134v15z" />
    <glyph glyph-name="uni1EAA" unicode="&#x1eaa;" horiz-adv-x="806" 
d="M754 164h40v-164h-392v164h60l-16 80h-136l-16 -80h60v-164h-342v164h40l169 614h364zM332 350h92l-41 199h-10zM269.5 1043q-11.5 -10 -11.5 -27h-56q0 75 28.5 110.5t92.5 35.5q22 0 42.5 -4.5t54.5 -14.5q5 -1 23.5 -6.5t34 -8t28.5 -2.5q20 0 31 9t11 26h56
q0 -75 -27.5 -110.5t-93.5 -35.5q-25 0 -48 5t-53 15q-28 9 -45.5 13.5t-36.5 4.5t-30.5 -10zM493 984l117 -136v-15h-134l-73 72l-73 -72h-134v15l117 136h180z" />
    <glyph glyph-name="uni1EAB" unicode="&#x1eab;" horiz-adv-x="615" 
d="M601 164v-164h-264v68q-22 -32 -61.5 -57t-96.5 -25q-75 0 -118 40t-43 113q0 189 321 194q-3 34 -26 46.5t-78 12.5q-45 0 -96.5 -9.5t-94.5 -25.5v184q53 13 115 21t121 8q149 0 213 -54t64 -167v-185h44zM337 234q-45 0 -69.5 -12t-24.5 -40q0 -17 10.5 -27.5
t29.5 -10.5q26 0 40 22t14 62v6zM181.5 821q-11.5 -10 -11.5 -27h-56q0 75 28.5 110.5t92.5 35.5q22 0 42.5 -4.5t54.5 -14.5q5 -1 23.5 -6.5t34 -8t28.5 -2.5q20 0 31 9t11 26h56q0 -75 -27.5 -110.5t-93.5 -35.5q-25 0 -48 5t-53 15q-28 9 -45.5 13.5t-36.5 4.5t-30.5 -10
zM405 762l117 -136v-15h-134l-73 72l-73 -72h-134v15l117 136h180z" />
    <glyph glyph-name="uni1EAC" unicode="&#x1eac;" horiz-adv-x="806" 
d="M754 164h40v-164h-392v164h60l-16 80h-136l-16 -80h60v-164h-342v164h40l169 614h364zM332 350h92l-41 199h-10zM290 -224v154h176v-154h-176zM151 838v15l127 126h250l127 -126v-15h-154l-93 81h-10l-93 -81h-154z" />
    <glyph glyph-name="uni1EAD" unicode="&#x1ead;" horiz-adv-x="615" 
d="M601 164v-164h-264v68q-22 -32 -61.5 -57t-96.5 -25q-75 0 -118 40t-43 113q0 189 321 194q-3 34 -26 46.5t-78 12.5q-45 0 -96.5 -9.5t-94.5 -25.5v184q53 13 115 21t121 8q149 0 213 -54t64 -167v-185h44zM337 234q-45 0 -69.5 -12t-24.5 -40q0 -17 10.5 -27.5
t29.5 -10.5q26 0 40 22t14 62v6zM232 -204v134h156v-134h-156zM405 762l117 -136v-15h-134l-73 72l-73 -72h-134v15l117 136h180z" />
    <glyph glyph-name="uni1EAE" unicode="&#x1eae;" horiz-adv-x="806" 
d="M754 164h40v-164h-392v164h60l-16 80h-136l-16 -80h60v-164h-342v164h40l169 614h364zM332 350h92l-41 199h-10zM303 1010v15l79 106h171v-26l-130 -95h-120zM255.5 861q-54.5 31 -54.5 96v20h149v-20q0 -45 53 -45t53 45v20h149v-20q0 -65 -54.5 -96t-147.5 -31
t-147.5 31z" />
    <glyph glyph-name="uni1EAF" unicode="&#x1eaf;" horiz-adv-x="615" 
d="M601 164v-164h-264v68q-22 -32 -61.5 -57t-96.5 -25q-75 0 -118 40t-43 113q0 189 321 194q-3 34 -26 46.5t-78 12.5q-45 0 -96.5 -9.5t-94.5 -25.5v184q53 13 115 21t121 8q149 0 213 -54t64 -167v-185h44zM337 234q-45 0 -69.5 -12t-24.5 -40q0 -17 10.5 -27.5
t29.5 -10.5q26 0 40 22t14 62v6zM215 788v15l79 106h171v-26l-130 -95h-120zM167.5 639q-54.5 31 -54.5 96v20h149v-20q0 -45 53 -45t53 45v20h149v-20q0 -65 -54.5 -96t-147.5 -31t-147.5 31z" />
    <glyph glyph-name="uni1EB0" unicode="&#x1eb0;" horiz-adv-x="806" 
d="M754 164h40v-164h-392v164h60l-16 80h-136l-16 -80h60v-164h-342v164h40l169 614h364zM332 350h92l-41 199h-10zM403 1010l-130 95v26h171l79 -106v-15h-120zM255.5 861q-54.5 31 -54.5 96v20h149v-20q0 -45 53 -45t53 45v20h149v-20q0 -65 -54.5 -96t-147.5 -31
t-147.5 31z" />
    <glyph glyph-name="uni1EB1" unicode="&#x1eb1;" horiz-adv-x="615" 
d="M601 164v-164h-264v68q-22 -32 -61.5 -57t-96.5 -25q-75 0 -118 40t-43 113q0 189 321 194q-3 34 -26 46.5t-78 12.5q-45 0 -96.5 -9.5t-94.5 -25.5v184q53 13 115 21t121 8q149 0 213 -54t64 -167v-185h44zM337 234q-45 0 -69.5 -12t-24.5 -40q0 -17 10.5 -27.5
t29.5 -10.5q26 0 40 22t14 62v6zM315 788l-130 95v26h171l79 -106v-15h-120zM167.5 639q-54.5 31 -54.5 96v20h149v-20q0 -45 53 -45t53 45v20h149v-20q0 -65 -54.5 -96t-147.5 -31t-147.5 31z" />
    <glyph glyph-name="uni1EB2" unicode="&#x1eb2;" horiz-adv-x="806" 
d="M754 164h40v-164h-392v164h60l-16 80h-136l-16 -80h60v-164h-342v164h40l169 614h364zM332 350h92l-41 199h-10zM367 1021q15 15 21.5 27.5t6.5 28.5q0 21 -13.5 34t-37.5 13q-21 0 -45 -6v75q45 15 92 15q54 0 84.5 -26.5t30.5 -73.5q0 -38 -27 -69.5t-74 -59.5z
M255.5 861q-54.5 31 -54.5 96v20h149v-20q0 -45 53 -45t53 45v20h149v-20q0 -65 -54.5 -96t-147.5 -31t-147.5 31z" />
    <glyph glyph-name="uni1EB3" unicode="&#x1eb3;" horiz-adv-x="615" 
d="M601 164v-164h-264v68q-22 -32 -61.5 -57t-96.5 -25q-75 0 -118 40t-43 113q0 189 321 194q-3 34 -26 46.5t-78 12.5q-45 0 -96.5 -9.5t-94.5 -25.5v184q53 13 115 21t121 8q149 0 213 -54t64 -167v-185h44zM337 234q-45 0 -69.5 -12t-24.5 -40q0 -17 10.5 -27.5
t29.5 -10.5q26 0 40 22t14 62v6zM279 799q15 15 21.5 27.5t6.5 28.5q0 21 -13.5 34t-37.5 13q-21 0 -45 -6v75q45 15 92 15q54 0 84.5 -26.5t30.5 -73.5q0 -38 -27 -69.5t-74 -59.5zM167.5 639q-54.5 31 -54.5 96v20h149v-20q0 -45 53 -45t53 45v20h149v-20q0 -65 -54.5 -96
t-147.5 -31t-147.5 31z" />
    <glyph glyph-name="uni1EB4" unicode="&#x1eb4;" horiz-adv-x="806" 
d="M754 164h40v-164h-392v164h60l-16 80h-136l-16 -80h60v-164h-342v164h40l169 614h364zM332 350h92l-41 199h-10zM433.5 1022q-22.5 5 -51.5 15q-28 9 -45.5 13.5t-36.5 4.5t-30.5 -10t-11.5 -27h-56q0 75 28.5 110.5t93.5 35.5q38 0 95 -19q4 -1 23 -6.5t35 -8t29 -2.5
q20 0 31 9.5t11 25.5h56q0 -75 -28 -110.5t-94 -35.5q-26 0 -48.5 5zM255.5 861q-54.5 31 -54.5 96v20h149v-20q0 -45 53 -45t53 45v20h149v-20q0 -65 -54.5 -96t-147.5 -31t-147.5 31z" />
    <glyph glyph-name="uni1EB5" unicode="&#x1eb5;" horiz-adv-x="615" 
d="M601 164v-164h-264v68q-22 -32 -61.5 -57t-96.5 -25q-75 0 -118 40t-43 113q0 189 321 194q-3 34 -26 46.5t-78 12.5q-45 0 -96.5 -9.5t-94.5 -25.5v184q53 13 115 21t121 8q149 0 213 -54t64 -167v-185h44zM337 234q-45 0 -69.5 -12t-24.5 -40q0 -17 10.5 -27.5
t29.5 -10.5q26 0 40 22t14 62v6zM345.5 800q-22.5 5 -51.5 15q-28 9 -45.5 13.5t-36.5 4.5t-30.5 -10t-11.5 -27h-56q0 75 28.5 110.5t93.5 35.5q38 0 95 -19q4 -1 23 -6.5t35 -8t29 -2.5q20 0 31 9.5t11 25.5h56q0 -75 -28 -110.5t-94 -35.5q-26 0 -48.5 5zM167.5 639
q-54.5 31 -54.5 96v20h149v-20q0 -45 53 -45t53 45v20h149v-20q0 -65 -54.5 -96t-147.5 -31t-147.5 31z" />
    <glyph glyph-name="uni1EB6" unicode="&#x1eb6;" horiz-adv-x="806" 
d="M754 164h40v-164h-392v164h60l-16 80h-136l-16 -80h60v-164h-342v164h40l169 614h364zM332 350h92l-41 199h-10zM290 -224v154h176v-154h-176zM255.5 861q-54.5 31 -54.5 96v20h149v-20q0 -45 53 -45t53 45v20h149v-20q0 -65 -54.5 -96t-147.5 -31t-147.5 31z" />
    <glyph glyph-name="uni1EB7" unicode="&#x1eb7;" horiz-adv-x="615" 
d="M601 164v-164h-264v68q-22 -32 -61.5 -57t-96.5 -25q-75 0 -118 40t-43 113q0 189 321 194q-3 34 -26 46.5t-78 12.5q-45 0 -96.5 -9.5t-94.5 -25.5v184q53 13 115 21t121 8q149 0 213 -54t64 -167v-185h44zM337 234q-45 0 -69.5 -12t-24.5 -40q0 -17 10.5 -27.5
t29.5 -10.5q26 0 40 22t14 62v6zM232 -204v134h156v-134h-156zM167.5 639q-54.5 31 -54.5 96v20h149v-20q0 -45 53 -45t53 45v20h149v-20q0 -65 -54.5 -96t-147.5 -31t-147.5 31z" />
    <glyph glyph-name="uni1EB8" unicode="&#x1eb8;" horiz-adv-x="713" 
d="M20 0v164h50v450h-50v164h675v-302h-224v138h-121v-158h88v-114h-88v-178h121v158h224v-322h-675zM295 -224v154h176v-154h-176z" />
    <glyph glyph-name="uni1EB9" unicode="&#x1eb9;" horiz-adv-x="594" 
d="M94 60.5q-80 74.5 -80 217.5t80 217.5t222 74.5q141 0 203.5 -73.5t62.5 -182.5v-72h-324v-6q0 -37 22 -54.5t73 -17.5q61 0 116 9t96 23v-160q-35 -19 -102.5 -34.5t-146.5 -15.5q-142 0 -222 74.5zM374 352v12q0 34 -14.5 49t-43.5 15t-43.5 -15.5t-14.5 -48.5v-12h116
zM228 -224v154h176v-154h-176z" />
    <glyph glyph-name="uni1EBA" unicode="&#x1eba;" horiz-adv-x="713" 
d="M20 0v164h50v450h-50v164h675v-302h-224v138h-121v-158h88v-114h-88v-178h121v158h224v-322h-675zM347 865q17 18 24 31.5t7 32.5q0 21 -13.5 34t-37.5 13q-21 0 -45 -6v75q45 15 92 15q54 0 84.5 -26.5t30.5 -73.5q0 -73 -101 -137z" />
    <glyph glyph-name="uni1EBB" unicode="&#x1ebb;" horiz-adv-x="594" 
d="M94 60.5q-80 74.5 -80 217.5t80 217.5t222 74.5q141 0 203.5 -73.5t62.5 -182.5v-72h-324v-6q0 -37 22 -54.5t73 -17.5q61 0 116 9t96 23v-160q-35 -19 -102.5 -34.5t-146.5 -15.5q-142 0 -222 74.5zM374 352v12q0 34 -14.5 49t-43.5 15t-43.5 -15.5t-14.5 -48.5v-12h116
zM279 654q22 22 31.5 39t9.5 40t-16.5 36.5t-44.5 13.5q-29 0 -56 -9v85q50 24 107 24q58 0 90 -28.5t32 -79.5q0 -88 -108 -159z" />
    <glyph glyph-name="uni1EBC" unicode="&#x1ebc;" horiz-adv-x="713" 
d="M20 0v164h50v450h-50v164h675v-302h-224v138h-121v-158h88v-114h-88v-178h121v158h224v-322h-675zM424 845q-28 7 -65 20q-31 11 -51.5 16t-39.5 5t-30.5 -10t-11.5 -27h-56q0 86 25.5 128.5t94.5 42.5q31 0 56.5 -6.5t60.5 -18.5q30 -11 50 -16t41 -5q22 0 32 10.5
t10 24.5h56q0 -87 -22.5 -129t-90.5 -42q-31 0 -59 7z" />
    <glyph glyph-name="uni1EBD" unicode="&#x1ebd;" horiz-adv-x="594" 
d="M94 60.5q-80 74.5 -80 217.5t80 217.5t222 74.5q141 0 203.5 -73.5t62.5 -182.5v-72h-324v-6q0 -37 22 -54.5t73 -17.5q61 0 116 9t96 23v-160q-35 -19 -102.5 -34.5t-146.5 -15.5q-142 0 -222 74.5zM374 352v12q0 34 -14.5 49t-43.5 15t-43.5 -15.5t-14.5 -48.5v-12h116
zM357 623q-28 7 -65 20q-31 11 -51.5 16t-39.5 5t-30.5 -10t-11.5 -27h-56q0 86 25.5 128.5t94.5 42.5q31 0 56.5 -6.5t60.5 -18.5q30 -11 50 -16t41 -5q22 0 32 10.5t10 24.5h56q0 -87 -22.5 -129t-90.5 -42q-31 0 -59 7z" />
    <glyph glyph-name="uni1EBE" unicode="&#x1ebe;" horiz-adv-x="713" 
d="M20 0v164h50v450h-50v164h675v-302h-224v138h-121v-158h88v-114h-88v-178h121v158h224v-322h-675zM593 1059h171v-26l-100 -95h-120v15zM293 984h180l117 -136v-15h-134l-73 72l-73 -72h-134v15z" />
    <glyph glyph-name="uni1EBF" unicode="&#x1ebf;" horiz-adv-x="594" 
d="M94 60.5q-80 74.5 -80 217.5t80 217.5t222 74.5q141 0 203.5 -73.5t62.5 -182.5v-72h-324v-6q0 -37 22 -54.5t73 -17.5q61 0 116 9t96 23v-160q-35 -19 -102.5 -34.5t-146.5 -15.5q-142 0 -222 74.5zM374 352v12q0 34 -14.5 49t-43.5 15t-43.5 -15.5t-14.5 -48.5v-12h116
zM526 837h171v-26l-100 -95h-120v15zM226 762h180l117 -136v-15h-134l-73 72l-73 -72h-134v15z" />
    <glyph glyph-name="uni1EC0" unicode="&#x1ec0;" horiz-adv-x="713" 
d="M20 0v164h50v450h-50v164h675v-302h-224v138h-121v-158h88v-114h-88v-178h121v158h224v-322h-675zM665 1054l49 -106v-15h-120l-100 95v26h171zM293 984h180l117 -136v-15h-134l-73 72l-73 -72h-134v15z" />
    <glyph glyph-name="uni1EC1" unicode="&#x1ec1;" horiz-adv-x="594" 
d="M94 60.5q-80 74.5 -80 217.5t80 217.5t222 74.5q141 0 203.5 -73.5t62.5 -182.5v-72h-324v-6q0 -37 22 -54.5t73 -17.5q61 0 116 9t96 23v-160q-35 -19 -102.5 -34.5t-146.5 -15.5q-142 0 -222 74.5zM374 352v12q0 34 -14.5 49t-43.5 15t-43.5 -15.5t-14.5 -48.5v-12h116
zM598 832l49 -106v-15h-120l-100 95v26h171zM226 762h180l117 -136v-15h-134l-73 72l-73 -72h-134v15z" />
    <glyph glyph-name="uni1EC2" unicode="&#x1ec2;" horiz-adv-x="713" 
d="M20 0v164h50v450h-50v164h675v-302h-224v138h-121v-158h88v-114h-88v-178h121v158h224v-322h-675zM643.5 1148.5q30.5 -26.5 30.5 -73.5q0 -73 -101 -137l-41 42q17 18 24 31.5t7 32.5q0 21 -13.5 34t-37.5 13q-21 0 -45 -6v75q45 15 92 15q54 0 84.5 -26.5zM293 984h180
l117 -136v-15h-134l-73 72l-73 -72h-134v15z" />
    <glyph glyph-name="uni1EC3" unicode="&#x1ec3;" horiz-adv-x="594" 
d="M94 60.5q-80 74.5 -80 217.5t80 217.5t222 74.5q141 0 203.5 -73.5t62.5 -182.5v-72h-324v-6q0 -37 22 -54.5t73 -17.5q61 0 116 9t96 23v-160q-35 -19 -102.5 -34.5t-146.5 -15.5q-142 0 -222 74.5zM374 352v12q0 34 -14.5 49t-43.5 15t-43.5 -15.5t-14.5 -48.5v-12h116
zM576.5 926.5q30.5 -26.5 30.5 -73.5q0 -73 -101 -137l-41 42q17 18 24 31.5t7 32.5q0 21 -13.5 34t-37.5 13q-21 0 -45 -6v75q45 15 92 15q54 0 84.5 -26.5zM226 762h180l117 -136v-15h-134l-73 72l-73 -72h-134v15z" />
    <glyph glyph-name="uni1EC4" unicode="&#x1ec4;" horiz-adv-x="713" 
d="M20 0v164h50v450h-50v164h675v-302h-224v138h-121v-158h88v-114h-88v-178h121v158h224v-322h-675zM249.5 1043q-11.5 -10 -11.5 -27h-56q0 75 28.5 110.5t92.5 35.5q22 0 42.5 -4.5t54.5 -14.5q5 -1 23.5 -6.5t34 -8t28.5 -2.5q20 0 31 9t11 26h56q0 -75 -27.5 -110.5
t-93.5 -35.5q-25 0 -48 5t-53 15q-28 9 -45.5 13.5t-36.5 4.5t-30.5 -10zM473 984l117 -136v-15h-134l-73 72l-73 -72h-134v15l117 136h180z" />
    <glyph glyph-name="uni1EC5" unicode="&#x1ec5;" horiz-adv-x="594" 
d="M94 60.5q-80 74.5 -80 217.5t80 217.5t222 74.5q141 0 203.5 -73.5t62.5 -182.5v-72h-324v-6q0 -37 22 -54.5t73 -17.5q61 0 116 9t96 23v-160q-35 -19 -102.5 -34.5t-146.5 -15.5q-142 0 -222 74.5zM374 352v12q0 34 -14.5 49t-43.5 15t-43.5 -15.5t-14.5 -48.5v-12h116
zM182.5 821q-11.5 -10 -11.5 -27h-56q0 75 28.5 110.5t92.5 35.5q22 0 42.5 -4.5t54.5 -14.5q5 -1 23.5 -6.5t34 -8t28.5 -2.5q20 0 31 9t11 26h56q0 -75 -27.5 -110.5t-93.5 -35.5q-25 0 -48 5t-53 15q-28 9 -45.5 13.5t-36.5 4.5t-30.5 -10zM406 762l117 -136v-15h-134
l-73 72l-73 -72h-134v15l117 136h180z" />
    <glyph glyph-name="uni1EC6" unicode="&#x1ec6;" horiz-adv-x="713" 
d="M20 0v164h50v450h-50v164h675v-302h-224v138h-121v-158h88v-114h-88v-178h121v158h224v-322h-675zM295 -224v154h176v-154h-176zM131 838v15l127 126h250l127 -126v-15h-154l-93 81h-10l-93 -81h-154z" />
    <glyph glyph-name="uni1EC7" unicode="&#x1ec7;" horiz-adv-x="594" 
d="M94 60.5q-80 74.5 -80 217.5t80 217.5t222 74.5q141 0 203.5 -73.5t62.5 -182.5v-72h-324v-6q0 -37 22 -54.5t73 -17.5q61 0 116 9t96 23v-160q-35 -19 -102.5 -34.5t-146.5 -15.5q-142 0 -222 74.5zM374 352v12q0 34 -14.5 49t-43.5 15t-43.5 -15.5t-14.5 -48.5v-12h116
zM238 -204v134h156v-134h-156zM406 762l117 -136v-15h-134l-73 72l-73 -72h-134v15l117 136h180z" />
    <glyph glyph-name="uni1EC8" unicode="&#x1ec8;" horiz-adv-x="420" 
d="M20 0v164h50v450h-50v164h380v-164h-50v-450h50v-164h-380zM174 865q17 18 24 31.5t7 32.5q0 21 -13.5 34t-37.5 13q-21 0 -45 -6v75q45 15 92 15q54 0 84.5 -26.5t30.5 -73.5q0 -73 -101 -137z" />
    <glyph glyph-name="uni1EC9" unicode="&#x1ec9;" horiz-adv-x="346" 
d="M18 0v164h44v228h-44v164h274v-392h44v-164h-318zM130 654q22 22 31.5 39t9.5 40t-16.5 36.5t-44.5 13.5q-29 0 -56 -9v85q50 24 107 24q58 0 90 -28.5t32 -79.5q0 -88 -108 -159z" />
    <glyph glyph-name="uni1ECA" unicode="&#x1eca;" horiz-adv-x="420" 
d="M20 0v164h50v450h-50v164h380v-164h-50v-450h50v-164h-380zM132 -224v154h176v-154h-176z" />
    <glyph glyph-name="uni1ECB" unicode="&#x1ecb;" horiz-adv-x="346" 
d="M66 611v167h204v-167h-204zM18 0v164h44v228h-44v164h274v-392h44v-164h-318zM89 -224v154h176v-154h-176z" />
    <glyph glyph-name="uni1ECC" unicode="&#x1ecc;" horiz-adv-x="792" 
d="M113.5 82q-99.5 96 -99.5 307t99.5 307t282.5 96t282.5 -96t99.5 -307t-99.5 -307t-282.5 -96t-282.5 96zM447 182q17 18 17 56v302q0 38 -17 56t-51 18t-51 -18t-17 -56v-302q0 -39 17 -56.5t51 -17.5t51 18zM308 -224v154h176v-154h-176z" />
    <glyph glyph-name="uni1ECD" unicode="&#x1ecd;" horiz-adv-x="632" 
d="M94 60.5q-80 74.5 -80 217.5t80 217.5t222 74.5q144 0 223 -75.5t79 -216.5q0 -143 -80 -217.5t-222 -74.5t-222 74.5zM359.5 179.5q14.5 15.5 14.5 48.5v100q0 33 -14.5 48.5t-43.5 15.5t-43.5 -15.5t-14.5 -48.5v-100q0 -33 14.5 -48.5t43.5 -15.5t43.5 15.5zM228 -224
v154h176v-154h-176z" />
    <glyph glyph-name="uni1ECE" unicode="&#x1ece;" horiz-adv-x="792" 
d="M113.5 82q-99.5 96 -99.5 307t99.5 307t282.5 96t282.5 -96t99.5 -307t-99.5 -307t-282.5 -96t-282.5 96zM447 182q17 18 17 56v302q0 38 -17 56t-51 18t-51 -18t-17 -56v-302q0 -39 17 -56.5t51 -17.5t51 18zM360 865q17 18 24 31.5t7 32.5q0 21 -13.5 34t-37.5 13
q-21 0 -45 -6v75q45 15 92 15q54 0 84.5 -26.5t30.5 -73.5q0 -73 -101 -137z" />
    <glyph glyph-name="uni1ECF" unicode="&#x1ecf;" horiz-adv-x="632" 
d="M94 60.5q-80 74.5 -80 217.5t80 217.5t222 74.5q144 0 223 -75.5t79 -216.5q0 -143 -80 -217.5t-222 -74.5t-222 74.5zM359.5 179.5q14.5 15.5 14.5 48.5v100q0 33 -14.5 48.5t-43.5 15.5t-43.5 -15.5t-14.5 -48.5v-100q0 -33 14.5 -48.5t43.5 -15.5t43.5 15.5zM279 654
q22 22 31.5 39t9.5 40t-16.5 36.5t-44.5 13.5q-29 0 -56 -9v85q50 24 107 24q58 0 90 -28.5t32 -79.5q0 -88 -108 -159z" />
    <glyph glyph-name="uni1ED0" unicode="&#x1ed0;" horiz-adv-x="792" 
d="M113.5 82q-99.5 96 -99.5 307t99.5 307t282.5 96t282.5 -96t99.5 -307t-99.5 -307t-282.5 -96t-282.5 96zM447 182q17 18 17 56v302q0 38 -17 56t-51 18t-51 -18t-17 -56v-302q0 -39 17 -56.5t51 -17.5t51 18zM606 1059h171v-26l-100 -95h-120v15zM306 984h180l117 -136
v-15h-134l-73 72l-73 -72h-134v15z" />
    <glyph glyph-name="uni1ED1" unicode="&#x1ed1;" horiz-adv-x="632" 
d="M94 60.5q-80 74.5 -80 217.5t80 217.5t222 74.5q144 0 223 -75.5t79 -216.5q0 -143 -80 -217.5t-222 -74.5t-222 74.5zM359.5 179.5q14.5 15.5 14.5 48.5v100q0 33 -14.5 48.5t-43.5 15.5t-43.5 -15.5t-14.5 -48.5v-100q0 -33 14.5 -48.5t43.5 -15.5t43.5 15.5zM526 837
h171v-26l-100 -95h-120v15zM226 762h180l117 -136v-15h-134l-73 72l-73 -72h-134v15z" />
    <glyph glyph-name="uni1ED2" unicode="&#x1ed2;" horiz-adv-x="792" 
d="M113.5 82q-99.5 96 -99.5 307t99.5 307t282.5 96t282.5 -96t99.5 -307t-99.5 -307t-282.5 -96t-282.5 96zM447 182q17 18 17 56v302q0 38 -17 56t-51 18t-51 -18t-17 -56v-302q0 -39 17 -56.5t51 -17.5t51 18zM678 1054l49 -106v-15h-120l-100 95v26h171zM306 984h180
l117 -136v-15h-134l-73 72l-73 -72h-134v15z" />
    <glyph glyph-name="uni1ED3" unicode="&#x1ed3;" horiz-adv-x="632" 
d="M94 60.5q-80 74.5 -80 217.5t80 217.5t222 74.5q144 0 223 -75.5t79 -216.5q0 -143 -80 -217.5t-222 -74.5t-222 74.5zM359.5 179.5q14.5 15.5 14.5 48.5v100q0 33 -14.5 48.5t-43.5 15.5t-43.5 -15.5t-14.5 -48.5v-100q0 -33 14.5 -48.5t43.5 -15.5t43.5 15.5zM598 832
l49 -106v-15h-120l-100 95v26h171zM226 762h180l117 -136v-15h-134l-73 72l-73 -72h-134v15z" />
    <glyph glyph-name="uni1ED4" unicode="&#x1ed4;" horiz-adv-x="792" 
d="M113.5 82q-99.5 96 -99.5 307t99.5 307t282.5 96t282.5 -96t99.5 -307t-99.5 -307t-282.5 -96t-282.5 96zM447 182q17 18 17 56v302q0 38 -17 56t-51 18t-51 -18t-17 -56v-302q0 -39 17 -56.5t51 -17.5t51 18zM656.5 1148.5q30.5 -26.5 30.5 -73.5q0 -73 -101 -137
l-41 42q17 18 24 31.5t7 32.5q0 21 -13.5 34t-37.5 13q-21 0 -45 -6v75q45 15 92 15q54 0 84.5 -26.5zM306 984h180l117 -136v-15h-134l-73 72l-73 -72h-134v15z" />
    <glyph glyph-name="uni1ED5" unicode="&#x1ed5;" horiz-adv-x="632" 
d="M94 60.5q-80 74.5 -80 217.5t80 217.5t222 74.5q144 0 223 -75.5t79 -216.5q0 -143 -80 -217.5t-222 -74.5t-222 74.5zM359.5 179.5q14.5 15.5 14.5 48.5v100q0 33 -14.5 48.5t-43.5 15.5t-43.5 -15.5t-14.5 -48.5v-100q0 -33 14.5 -48.5t43.5 -15.5t43.5 15.5z
M576.5 926.5q30.5 -26.5 30.5 -73.5q0 -73 -101 -137l-41 42q17 18 24 31.5t7 32.5q0 21 -13.5 34t-37.5 13q-21 0 -45 -6v75q45 15 92 15q54 0 84.5 -26.5zM226 762h180l117 -136v-15h-134l-73 72l-73 -72h-134v15z" />
    <glyph glyph-name="uni1ED6" unicode="&#x1ed6;" horiz-adv-x="792" 
d="M113.5 82q-99.5 96 -99.5 307t99.5 307t282.5 96t282.5 -96t99.5 -307t-99.5 -307t-282.5 -96t-282.5 96zM447 182q17 18 17 56v302q0 38 -17 56t-51 18t-51 -18t-17 -56v-302q0 -39 17 -56.5t51 -17.5t51 18zM262.5 1043q-11.5 -10 -11.5 -27h-56q0 75 28.5 110.5
t92.5 35.5q22 0 42.5 -4.5t54.5 -14.5q5 -1 23.5 -6.5t34 -8t28.5 -2.5q20 0 31 9t11 26h56q0 -75 -27.5 -110.5t-93.5 -35.5q-25 0 -48 5t-53 15q-28 9 -45.5 13.5t-36.5 4.5t-30.5 -10zM486 984l117 -136v-15h-134l-73 72l-73 -72h-134v15l117 136h180z" />
    <glyph glyph-name="uni1ED7" unicode="&#x1ed7;" horiz-adv-x="632" 
d="M94 60.5q-80 74.5 -80 217.5t80 217.5t222 74.5q144 0 223 -75.5t79 -216.5q0 -143 -80 -217.5t-222 -74.5t-222 74.5zM359.5 179.5q14.5 15.5 14.5 48.5v100q0 33 -14.5 48.5t-43.5 15.5t-43.5 -15.5t-14.5 -48.5v-100q0 -33 14.5 -48.5t43.5 -15.5t43.5 15.5z
M182.5 821q-11.5 -10 -11.5 -27h-56q0 75 28.5 110.5t92.5 35.5q22 0 42.5 -4.5t54.5 -14.5q5 -1 23.5 -6.5t34 -8t28.5 -2.5q20 0 31 9t11 26h56q0 -75 -27.5 -110.5t-93.5 -35.5q-25 0 -48 5t-53 15q-28 9 -45.5 13.5t-36.5 4.5t-30.5 -10zM406 762l117 -136v-15h-134
l-73 72l-73 -72h-134v15l117 136h180z" />
    <glyph glyph-name="uni1ED8" unicode="&#x1ed8;" horiz-adv-x="792" 
d="M113.5 82q-99.5 96 -99.5 307t99.5 307t282.5 96t282.5 -96t99.5 -307t-99.5 -307t-282.5 -96t-282.5 96zM447 182q17 18 17 56v302q0 38 -17 56t-51 18t-51 -18t-17 -56v-302q0 -39 17 -56.5t51 -17.5t51 18zM308 -224v154h176v-154h-176zM144 838v15l127 126h250
l127 -126v-15h-154l-93 81h-10l-93 -81h-154z" />
    <glyph glyph-name="uni1ED9" unicode="&#x1ed9;" horiz-adv-x="632" 
d="M94 60.5q-80 74.5 -80 217.5t80 217.5t222 74.5q144 0 223 -75.5t79 -216.5q0 -143 -80 -217.5t-222 -74.5t-222 74.5zM359.5 179.5q14.5 15.5 14.5 48.5v100q0 33 -14.5 48.5t-43.5 15.5t-43.5 -15.5t-14.5 -48.5v-100q0 -33 14.5 -48.5t43.5 -15.5t43.5 15.5zM238 -204
v134h156v-134h-156zM406 762l117 -136v-15h-134l-73 72l-73 -72h-134v15l117 136h180z" />
    <glyph glyph-name="uni1EDA" unicode="&#x1eda;" horiz-adv-x="792" 
d="M778 389q0 -211 -99.5 -307t-282.5 -96t-282.5 96t-99.5 307q0 209 99 306t273 97q52 0 104 -8q44 -6 66 -6q60 0 60 85v30h149v-30q0 -55 -25 -95t-73 -61q111 -100 111 -318zM464 540q0 38 -17 56t-51 18t-51 -18t-17 -56v-302q0 -39 17 -56.5t51 -17.5t51 18t17 56
v302zM266 838v15l109 96h251v-26l-163 -85h-197z" />
    <glyph glyph-name="uni1EDB" unicode="&#x1edb;" horiz-adv-x="624" 
d="M664 661v-20q0 -59 -31.5 -98.5t-89.5 -55.5q71 -76 71 -209q0 -143 -80 -217.5t-222 -74.5t-222 74.5t-80 217.5t80 217.5t222 74.5q26 0 84 -7q44 -6 64 -6q33 0 49 20.5t16 63.5v20h139zM370 328q0 33 -14.5 48.5t-43.5 15.5t-43.5 -15.5t-14.5 -48.5v-100
q0 -33 14.5 -48.5t43.5 -15.5t43.5 15.5t14.5 48.5v100zM230 616v15l79 152h204v-27l-133 -140h-150z" />
    <glyph glyph-name="uni1EDC" unicode="&#x1edc;" horiz-adv-x="792" 
d="M778 389q0 -211 -99.5 -307t-282.5 -96t-282.5 96t-99.5 307q0 209 99 306t273 97q52 0 104 -8q44 -6 66 -6q60 0 60 85v30h149v-30q0 -55 -25 -95t-73 -61q111 -100 111 -318zM464 540q0 38 -17 56t-51 18t-51 -18t-17 -56v-302q0 -39 17 -56.5t51 -17.5t51 18t17 56
v302zM331 838l-163 85v26h251l109 -96v-15h-197z" />
    <glyph glyph-name="uni1EDD" unicode="&#x1edd;" horiz-adv-x="624" 
d="M664 661v-20q0 -59 -31.5 -98.5t-89.5 -55.5q71 -76 71 -209q0 -143 -80 -217.5t-222 -74.5t-222 74.5t-80 217.5t80 217.5t222 74.5q26 0 84 -7q44 -6 64 -6q33 0 49 20.5t16 63.5v20h139zM370 328q0 33 -14.5 48.5t-43.5 15.5t-43.5 -15.5t-14.5 -48.5v-100
q0 -33 14.5 -48.5t43.5 -15.5t43.5 15.5t14.5 48.5v100zM254 616l-133 140v27h204l79 -152v-15h-150z" />
    <glyph glyph-name="uni1EDE" unicode="&#x1ede;" horiz-adv-x="792" 
d="M778 389q0 -211 -99.5 -307t-282.5 -96t-282.5 96t-99.5 307q0 209 99 306t273 97q52 0 104 -8q44 -6 66 -6q60 0 60 85v30h149v-30q0 -55 -25 -95t-73 -61q111 -100 111 -318zM464 540q0 38 -17 56t-51 18t-51 -18t-17 -56v-302q0 -39 17 -56.5t51 -17.5t51 18t17 56
v302zM360 865q17 18 24 31.5t7 32.5q0 21 -13.5 34t-37.5 13q-21 0 -45 -6v75q45 15 92 15q54 0 84.5 -26.5t30.5 -73.5q0 -73 -101 -137z" />
    <glyph glyph-name="uni1EDF" unicode="&#x1edf;" horiz-adv-x="624" 
d="M664 661v-20q0 -59 -31.5 -98.5t-89.5 -55.5q71 -76 71 -209q0 -143 -80 -217.5t-222 -74.5t-222 74.5t-80 217.5t80 217.5t222 74.5q26 0 84 -7q44 -6 64 -6q33 0 49 20.5t16 63.5v20h139zM370 328q0 33 -14.5 48.5t-43.5 15.5t-43.5 -15.5t-14.5 -48.5v-100
q0 -33 14.5 -48.5t43.5 -15.5t43.5 15.5t14.5 48.5v100zM280 654q22 22 31.5 39t9.5 40t-16.5 36.5t-44.5 13.5q-29 0 -56 -9v85q50 24 107 24q58 0 90 -28.5t32 -79.5q0 -88 -108 -159z" />
    <glyph glyph-name="uni1EE0" unicode="&#x1ee0;" horiz-adv-x="792" 
d="M269.5 865.5q-11.5 -10.5 -11.5 -26.5h-56q0 76 28 111.5t92 35.5q36 0 89 -19q5 -1 22 -6.5t31.5 -8t27.5 -2.5q19 0 29.5 9.5t10.5 25.5h56q0 -76 -27.5 -111.5t-92.5 -35.5q-22 0 -40.5 4.5t-33.5 9.5t-20 6q-26 9 -42 13.5t-34 4.5q-17 0 -28.5 -10.5zM778 389
q0 -211 -99.5 -307t-282.5 -96t-282.5 96t-99.5 307q0 209 99 306t273 97q52 0 104 -8q44 -6 66 -6q60 0 60 85v30h149v-30q0 -55 -25 -95t-73 -61q111 -100 111 -318zM464 540q0 38 -17 56t-51 18t-51 -18t-17 -56v-302q0 -39 17 -56.5t51 -17.5t51 18t17 56v302z" />
    <glyph glyph-name="uni1EE1" unicode="&#x1ee1;" horiz-adv-x="624" 
d="M664 661v-20q0 -59 -31.5 -98.5t-89.5 -55.5q71 -76 71 -209q0 -143 -80 -217.5t-222 -74.5t-222 74.5t-80 217.5t80 217.5t222 74.5q26 0 84 -7q44 -6 64 -6q33 0 49 20.5t16 63.5v20h139zM370 328q0 33 -14.5 48.5t-43.5 15.5t-43.5 -15.5t-14.5 -48.5v-100
q0 -33 14.5 -48.5t43.5 -15.5t43.5 15.5t14.5 48.5v100zM354.5 622.5q-20.5 6.5 -52.5 19.5q-29 12 -44.5 17t-30.5 5q-18 0 -27.5 -10t-9.5 -27h-56q0 86 23.5 128.5t86.5 42.5q23 0 43 -6.5t49 -18.5q46 -21 71 -21q37 0 37 35h56q0 -87 -21 -129t-82 -42q-22 0 -42.5 6.5
z" />
    <glyph glyph-name="uni1EE2" unicode="&#x1ee2;" horiz-adv-x="792" 
d="M778 389q0 -211 -99.5 -307t-282.5 -96t-282.5 96t-99.5 307q0 209 99 306t273 97q52 0 104 -8q44 -6 66 -6q60 0 60 85v30h149v-30q0 -55 -25 -95t-73 -61q111 -100 111 -318zM464 540q0 38 -17 56t-51 18t-51 -18t-17 -56v-302q0 -39 17 -56.5t51 -17.5t51 18t17 56
v302zM308 -224v154h176v-154h-176z" />
    <glyph glyph-name="uni1EE3" unicode="&#x1ee3;" horiz-adv-x="624" 
d="M664 661v-20q0 -59 -31.5 -98.5t-89.5 -55.5q71 -76 71 -209q0 -143 -80 -217.5t-222 -74.5t-222 74.5t-80 217.5t80 217.5t222 74.5q26 0 84 -7q44 -6 64 -6q33 0 49 20.5t16 63.5v20h139zM370 328q0 33 -14.5 48.5t-43.5 15.5t-43.5 -15.5t-14.5 -48.5v-100
q0 -33 14.5 -48.5t43.5 -15.5t43.5 15.5t14.5 48.5v100zM234 -204v134h156v-134h-156z" />
    <glyph glyph-name="uni1EE4" unicode="&#x1ee4;" horiz-adv-x="781" 
d="M151.5 55q-85.5 69 -85.5 224v335h-50v164h370v-164h-40v-386q0 -33 14.5 -48.5t43.5 -15.5t43.5 15.5t14.5 48.5v386h-40v164h343v-164h-50v-335q0 -155 -83 -224t-238 -69q-157 0 -242.5 69zM306 -224v154h176v-154h-176z" />
    <glyph glyph-name="uni1EE5" unicode="&#x1ee5;" horiz-adv-x="686" 
d="M676 164v-164h-274v78q-72 -92 -180 -92q-83 0 -124.5 52t-41.5 143v211h-44v164h274v-328q0 -33 14.5 -48.5t43.5 -15.5t43.5 15.5t14.5 48.5v164h-54v164h284v-392h44zM285 -224v154h176v-154h-176z" />
    <glyph glyph-name="uni1EE6" unicode="&#x1ee6;" horiz-adv-x="781" 
d="M151.5 55q-85.5 69 -85.5 224v335h-50v164h370v-164h-40v-386q0 -33 14.5 -48.5t43.5 -15.5t43.5 15.5t14.5 48.5v386h-40v164h343v-164h-50v-335q0 -155 -83 -224t-238 -69q-157 0 -242.5 69zM366 865q17 18 24 31.5t7 32.5q0 21 -13.5 34t-37.5 13q-21 0 -45 -6v75
q45 15 92 15q54 0 84.5 -26.5t30.5 -73.5q0 -73 -101 -137z" />
    <glyph glyph-name="uni1EE7" unicode="&#x1ee7;" horiz-adv-x="686" 
d="M676 164v-164h-274v78q-72 -92 -180 -92q-83 0 -124.5 52t-41.5 143v211h-44v164h274v-328q0 -33 14.5 -48.5t43.5 -15.5t43.5 15.5t14.5 48.5v164h-54v164h284v-392h44zM280 654q22 22 31.5 39t9.5 40t-16.5 36.5t-44.5 13.5q-29 0 -56 -9v85q50 24 107 24
q58 0 90 -28.5t32 -79.5q0 -88 -108 -159z" />
    <glyph glyph-name="uni1EE8" unicode="&#x1ee8;" horiz-adv-x="781" 
d="M867 893v-30q0 -74 -40 -120t-112 -58v-406q0 -155 -83 -224t-238 -69q-157 0 -242.5 69t-85.5 224v335h-50v164h370v-164h-40v-386q0 -33 14.5 -48.5t43.5 -15.5t43.5 15.5t14.5 48.5v386h-40v164h223q37 0 55 21t18 64v30h149zM272 838v15l109 96h251v-26l-163 -85
h-197z" />
    <glyph glyph-name="uni1EE9" unicode="&#x1ee9;" horiz-adv-x="676" 
d="M716 661v-20q0 -54 -24.5 -93.5t-69.5 -60.5v-323h44v-164h-274v78q-72 -92 -180 -92q-83 0 -124.5 52t-41.5 143v211h-44v164h274v-328q0 -33 14.5 -48.5t43.5 -15.5t43.5 15.5t14.5 48.5v164h-54v164h156q37 0 55 21t18 64v20h149zM220 616v15l109 152h214v-27
l-163 -140h-160z" />
    <glyph glyph-name="uni1EEA" unicode="&#x1eea;" horiz-adv-x="781" 
d="M867 893v-30q0 -74 -40 -120t-112 -58v-406q0 -155 -83 -224t-238 -69q-157 0 -242.5 69t-85.5 224v335h-50v164h370v-164h-40v-386q0 -33 14.5 -48.5t43.5 -15.5t43.5 15.5t14.5 48.5v386h-40v164h223q37 0 55 21t18 64v30h149zM337 838l-163 85v26h251l109 -96v-15
h-197z" />
    <glyph glyph-name="uni1EEB" unicode="&#x1eeb;" horiz-adv-x="676" 
d="M716 661v-20q0 -54 -24.5 -93.5t-69.5 -60.5v-323h44v-164h-274v78q-72 -92 -180 -92q-83 0 -124.5 52t-41.5 143v211h-44v164h274v-328q0 -33 14.5 -48.5t43.5 -15.5t43.5 15.5t14.5 48.5v164h-54v164h156q37 0 55 21t18 64v20h149zM229 616l-163 140v27h214l109 -152
v-15h-160z" />
    <glyph glyph-name="uni1EEC" unicode="&#x1eec;" horiz-adv-x="781" 
d="M867 893v-30q0 -74 -40 -120t-112 -58v-406q0 -155 -83 -224t-238 -69q-157 0 -242.5 69t-85.5 224v335h-50v164h370v-164h-40v-386q0 -33 14.5 -48.5t43.5 -15.5t43.5 15.5t14.5 48.5v386h-40v164h223q37 0 55 21t18 64v30h149zM366 865q17 18 24 31.5t7 32.5
q0 21 -13.5 34t-37.5 13q-21 0 -45 -6v75q45 15 92 15q54 0 84.5 -26.5t30.5 -73.5q0 -73 -101 -137z" />
    <glyph glyph-name="uni1EED" unicode="&#x1eed;" horiz-adv-x="676" 
d="M716 661v-20q0 -54 -24.5 -93.5t-69.5 -60.5v-323h44v-164h-274v78q-72 -92 -180 -92q-83 0 -124.5 52t-41.5 143v211h-44v164h274v-328q0 -33 14.5 -48.5t43.5 -15.5t43.5 15.5t14.5 48.5v164h-54v164h156q37 0 55 21t18 64v20h149zM270 654q22 22 31.5 39t9.5 40
t-16.5 36.5t-44.5 13.5q-29 0 -56 -9v85q50 24 107 24q58 0 90 -28.5t32 -79.5q0 -88 -108 -159z" />
    <glyph glyph-name="uni1EEE" unicode="&#x1eee;" horiz-adv-x="781" 
d="M867 893v-30q0 -74 -40 -120t-112 -58v-406q0 -155 -83 -224t-238 -69q-157 0 -242.5 69t-85.5 224v335h-50v164h370v-164h-40v-386q0 -33 14.5 -48.5t43.5 -15.5t43.5 15.5t14.5 48.5v386h-40v164h223q37 0 55 21t18 64v30h149zM455 843q-30 5 -72 15q-40 9 -66.5 13.5
t-51.5 4.5q-23 0 -36.5 -10t-13.5 -27h-56q0 77 30.5 116.5t97.5 39.5q30 0 58 -4.5t75 -14.5q76 -17 117 -17q24 0 37 9t13 26h56q0 -77 -29.5 -116.5t-98.5 -39.5q-30 0 -60 5z" />
    <glyph glyph-name="uni1EEF" unicode="&#x1eef;" horiz-adv-x="676" 
d="M716 661v-20q0 -54 -24.5 -93.5t-69.5 -60.5v-323h44v-164h-274v78q-72 -92 -180 -92q-83 0 -124.5 52t-41.5 143v211h-44v164h274v-328q0 -33 14.5 -48.5t43.5 -15.5t43.5 15.5t14.5 48.5v164h-54v164h156q37 0 55 21t18 64v20h149zM348 623q-28 7 -65 20
q-31 11 -51.5 16t-39.5 5t-30.5 -10t-11.5 -27h-56q0 86 25.5 128.5t94.5 42.5q31 0 56.5 -6.5t60.5 -18.5q30 -11 50 -16t41 -5q22 0 32 10.5t10 24.5h56q0 -87 -22.5 -129t-90.5 -42q-31 0 -59 7z" />
    <glyph glyph-name="uni1EF0" unicode="&#x1ef0;" horiz-adv-x="781" 
d="M867 893v-30q0 -74 -40 -120t-112 -58v-406q0 -155 -83 -224t-238 -69q-157 0 -242.5 69t-85.5 224v335h-50v164h370v-164h-40v-386q0 -33 14.5 -48.5t43.5 -15.5t43.5 15.5t14.5 48.5v386h-40v164h223q37 0 55 21t18 64v30h149zM306 -224v154h176v-154h-176z" />
    <glyph glyph-name="uni1EF1" unicode="&#x1ef1;" horiz-adv-x="676" 
d="M716 661v-20q0 -54 -24.5 -93.5t-69.5 -60.5v-323h44v-164h-274v78q-72 -92 -180 -92q-83 0 -124.5 52t-41.5 143v211h-44v164h274v-328q0 -33 14.5 -48.5t43.5 -15.5t43.5 15.5t14.5 48.5v164h-54v164h156q37 0 55 21t18 64v20h149zM275 -224v154h176v-154h-176z" />
    <glyph glyph-name="Ygrave" unicode="&#x1ef2;" horiz-adv-x="776" 
d="M457 778h307v-164h-40l-193 -346v-104h50v-164h-380v164h50v104l-199 346h-40v164h387v-164h-35l59 -155h10l59 155h-35v164zM363 838l-163 85v26h251l109 -96v-15h-197z" />
    <glyph glyph-name="ygrave" unicode="&#x1ef3;" horiz-adv-x="632" 
d="M620 556v-164h-38l-131 -347q-49 -131 -112 -196.5t-166 -65.5q-42 0 -85 8.5t-78 23.5v181h138v-10q0 -25 26 -25q23 0 35 22l-158 409h-38v164h297v-164h-34l52 -156l48 156h-34v164h278zM248 616l-163 140v27h214l109 -152v-15h-160z" />
    <glyph glyph-name="uni1EF4" unicode="&#x1ef4;" horiz-adv-x="776" 
d="M457 778h307v-164h-40l-193 -346v-104h50v-164h-380v164h50v104l-199 346h-40v164h387v-164h-35l59 -155h10l59 155h-35v164zM303 -224v154h176v-154h-176z" />
    <glyph glyph-name="uni1EF5" unicode="&#x1ef5;" horiz-adv-x="632" 
d="M620 556v-164h-38l-131 -347q-49 -131 -112 -196.5t-166 -65.5q-42 0 -85 8.5t-78 23.5v181h138v-10q0 -25 26 -25q23 0 35 22l-158 409h-38v164h297v-164h-34l52 -156l48 156h-34v164h278zM444 -224v154h176v-154h-176z" />
    <glyph glyph-name="uni1EF6" unicode="&#x1ef6;" horiz-adv-x="776" 
d="M457 778h307v-164h-40l-193 -346v-104h50v-164h-380v164h50v104l-199 346h-40v164h387v-164h-35l59 -155h10l59 155h-35v164zM392 865q17 18 24 31.5t7 32.5q0 21 -13.5 34t-37.5 13q-21 0 -45 -6v75q45 15 92 15q54 0 84.5 -26.5t30.5 -73.5q0 -73 -101 -137z" />
    <glyph glyph-name="uni1EF7" unicode="&#x1ef7;" horiz-adv-x="632" 
d="M620 556v-164h-38l-131 -347q-49 -131 -112 -196.5t-166 -65.5q-42 0 -85 8.5t-78 23.5v181h138v-10q0 -25 26 -25q23 0 35 22l-158 409h-38v164h297v-164h-34l52 -156l48 156h-34v164h278zM289 654q22 22 31.5 39t9.5 40t-16.5 36.5t-44.5 13.5q-29 0 -56 -9v85
q50 24 107 24q58 0 90 -28.5t32 -79.5q0 -88 -108 -159z" />
    <glyph glyph-name="uni1EF8" unicode="&#x1ef8;" horiz-adv-x="776" 
d="M457 778h307v-164h-40l-193 -346v-104h50v-164h-380v164h50v104l-199 346h-40v164h387v-164h-35l59 -155h10l59 155h-35v164zM484.5 843q-28.5 5 -68.5 15q-42 9 -66 13.5t-48 4.5q-26 0 -43 -10.5t-17 -26.5h-56q0 84 27.5 120.5t102.5 36.5q33 0 63 -5t70 -15
q38 -8 60 -12t45 -4q28 0 44 9t16 26h56q0 -56 -11 -89.5t-39 -50.5t-80 -17q-27 0 -55.5 5z" />
    <glyph glyph-name="uni1EF9" unicode="&#x1ef9;" horiz-adv-x="632" 
d="M620 556v-164h-38l-131 -347q-49 -131 -112 -196.5t-166 -65.5q-42 0 -85 8.5t-78 23.5v181h138v-10q0 -25 26 -25q23 0 35 22l-158 409h-38v164h297v-164h-34l52 -156l48 156h-34v164h278zM367 623q-28 7 -65 20q-31 11 -51.5 16t-39.5 5t-30.5 -10t-11.5 -27h-56
q0 86 25.5 128.5t94.5 42.5q31 0 56.5 -6.5t60.5 -18.5q30 -11 50 -16t41 -5q22 0 32 10.5t10 24.5h56q0 -87 -22.5 -129t-90.5 -42q-31 0 -59 7z" />
    <glyph glyph-name="uni2007" unicode="&#x2007;" horiz-adv-x="732" 
 />
    <glyph glyph-name="uni2008" unicode="&#x2008;" horiz-adv-x="244" 
 />
    <glyph glyph-name="uni2009" unicode="&#x2009;" horiz-adv-x="200" 
 />
    <glyph glyph-name="uni200A" unicode="&#x200a;" horiz-adv-x="100" 
 />
    <glyph glyph-name="uni200B" unicode="&#x200b;" 
 />
    <glyph glyph-name="uni2010" unicode="&#x2010;" horiz-adv-x="389" 
d="M34 199v164h321v-164h-321z" />
    <glyph glyph-name="figuredash" unicode="&#x2012;" horiz-adv-x="732" 
d="M0 199v164h732v-164h-732z" />
    <glyph glyph-name="endash" unicode="&#x2013;" horiz-adv-x="553" 
d="M0 199v164h553v-164h-553z" />
    <glyph glyph-name="emdash" unicode="&#x2014;" horiz-adv-x="939" 
d="M0 199v164h939v-164h-939z" />
    <glyph glyph-name="uni2015" unicode="&#x2015;" horiz-adv-x="939" 
d="M0 199v164h939v-164h-939z" />
    <glyph glyph-name="quoteleft" unicode="&#x2018;" horiz-adv-x="210" 
d="M40 548v128l67 102h67l-43 -102h49v-128h-140z" />
    <glyph glyph-name="quoteright" unicode="&#x2019;" horiz-adv-x="210" 
d="M36 548l43 102h-49v128h140v-128l-67 -102h-67z" />
    <glyph glyph-name="quotesinglbase" unicode="&#x201a;" horiz-adv-x="210" 
d="M36 -102l43 102h-49v128h140v-128l-67 -102h-67z" />
    <glyph glyph-name="quotedblleft" unicode="&#x201c;" horiz-adv-x="386" 
d="M40 548v128l67 102h67l-43 -102h49v-128h-140zM216 548v128l67 102h67l-43 -102h49v-128h-140z" />
    <glyph glyph-name="quotedblright" unicode="&#x201d;" horiz-adv-x="386" 
d="M36 548l43 102h-49v128h140v-128l-67 -102h-67zM212 548l43 102h-49v128h140v-128l-67 -102h-67z" />
    <glyph glyph-name="quotedblbase" unicode="&#x201e;" horiz-adv-x="386" 
d="M36 -102l43 102h-49v128h140v-128l-67 -102h-67zM212 -102l43 102h-49v128h140v-128l-67 -102h-67z" />
    <glyph glyph-name="dagger" unicode="&#x2020;" horiz-adv-x="454" 
d="M444 644v-129h-125v-329h-174v329h-125v129h125v134h174v-134h125z" />
    <glyph glyph-name="daggerdbl" unicode="&#x2021;" horiz-adv-x="454" 
d="M444 535h-125v-106h125v-129h-125v-114h-174v114h-125v129h125v106h-125v129h125v114h174v-114h125v-129z" />
    <glyph glyph-name="bullet" unicode="&#x2022;" horiz-adv-x="343" 
d="M74 287.5q-39 38.5 -39 96.5t39 97t98 39t97.5 -38.5t38.5 -97.5q0 -58 -39 -96.5t-97 -38.5q-59 0 -98 38.5z" />
    <glyph glyph-name="ellipsis" unicode="&#x2026;" horiz-adv-x="692" 
d="M488 0v164h156v-164h-156zM264 0v164h156v-164h-156zM40 0v164h156v-164h-156z" />
    <glyph glyph-name="perthousand" unicode="&#x2030;" horiz-adv-x="1252" 
d="M30 586q0 106 42 154t121 48q164 0 164 -202q0 -97 -39 -148.5t-125 -51.5q-163 0 -163 200zM222 510v155q0 36 -29 36q-28 0 -28 -36v-155q0 -37 28 -37q29 0 29 37zM159 0v32l465 746h102v-32l-464 -746h-103zM528 190q0 106 42 154t121 48q164 0 164 -202
q0 -97 -39 -148.5t-125 -51.5q-163 0 -163 200zM720 114v155q0 36 -29 36q-28 0 -28 -36v-155q0 -37 28 -37q29 0 29 37zM895 190q0 106 42 154t121 48q164 0 164 -202q0 -97 -39 -148.5t-125 -51.5q-163 0 -163 200zM1087 114v155q0 36 -29 36q-28 0 -28 -36v-155
q0 -37 28 -37q29 0 29 37z" />
    <glyph glyph-name="minute" unicode="&#x2032;" horiz-adv-x="231" 
d="M40 533v244h151l-50 -244h-101z" />
    <glyph glyph-name="second" unicode="&#x2033;" horiz-adv-x="421" 
d="M40 533v244h151l-50 -244h-101zM230 533v244h151l-50 -244h-101z" />
    <glyph glyph-name="guilsinglleft" unicode="&#x2039;" horiz-adv-x="299" 
d="M158 61l-116 192v47l116 192h131l-79 -208v-15l79 -208h-131z" />
    <glyph glyph-name="guilsinglright" unicode="&#x203a;" horiz-adv-x="299" 
d="M10 61l79 208v15l-79 208h131l116 -192v-47l-116 -192h-131z" />
    <glyph glyph-name="fraction" unicode="&#x2044;" horiz-adv-x="287" 
d="M-140 0v32l465 746h102v-32l-464 -746h-103z" />
    <glyph glyph-name="uni2070" unicode="&#x2070;" horiz-adv-x="367" 
d="M20 621q0 106 42 154t121 48q164 0 164 -202q0 -97 -39 -148.5t-125 -51.5q-163 0 -163 200zM212 545v155q0 36 -29 36q-28 0 -28 -36v-155q0 -37 28 -37q29 0 29 37z" />
    <glyph glyph-name="uni2074" unicode="&#x2074;" horiz-adv-x="360" 
d="M180 429v64h-160v82l159 236h131v-241h30v-77h-30v-64h-130zM107 570h73v108z" />
    <glyph glyph-name="uni2075" unicode="&#x2075;" horiz-adv-x="336" 
d="M285.5 644.5q30.5 -30.5 30.5 -83.5q0 -67 -42 -103.5t-122 -36.5q-69 0 -131 18v93q47 -9 91 -9q40 0 59 10.5t19 33.5q0 14 -8 24t-25 10q-15 0 -24 -8t-16 -23l-97 5l22 238h256v-94h-159l-6 -55q30 11 64 11q58 0 88.5 -30.5z" />
    <glyph glyph-name="uni2076" unicode="&#x2076;" horiz-adv-x="357" 
d="M307.5 644.5q29.5 -30.5 29.5 -87.5q0 -66 -39.5 -101t-111.5 -35q-86 0 -126 48t-40 149q0 102 48 153.5t138 51.5q62 0 103 -16v-97q-39 13 -88 13q-31 0 -48.5 -13.5t-17.5 -40.5v-6q29 12 67 12q56 0 85.5 -30.5zM205.5 518q6.5 10 6.5 34t-7.5 35t-23.5 11
q-13 0 -26 -5v-46q0 -39 28 -39q16 0 22.5 10z" />
    <glyph glyph-name="uni2077" unicode="&#x2077;" horiz-adv-x="348" 
d="M113 575q38 82 85 142h-75v-39h-103v133h308v-75q-43 -64 -78.5 -152t-35.5 -155h-139q0 64 38 146z" />
    <glyph glyph-name="uni2078" unicode="&#x2078;" horiz-adv-x="353" 
d="M313 599.5q20 -23.5 20 -62.5q0 -57 -39.5 -86.5t-116.5 -29.5t-117 28.5t-40 84.5q0 40 21.5 64.5t50.5 34.5q-25 9 -43 30t-18 54q0 52 37 79t109 27q71 0 108 -27t37 -79q0 -33 -16 -54t-40 -30q27 -10 47 -33.5zM151 703q0 -18 6 -26t20 -8t19.5 8.5t5.5 25.5
t-5.5 25t-19.5 8q-26 0 -26 -33zM200.5 518q6.5 10 6.5 33t-6.5 33.5t-23.5 10.5t-24 -11t-7 -33t7 -32.5t24 -10.5t23.5 10z" />
    <glyph glyph-name="uni2079" unicode="&#x2079;" horiz-adv-x="357" 
d="M297 775q40 -48 40 -149q0 -102 -48 -153.5t-138 -51.5q-62 0 -103 16v97q39 -13 88 -13q31 0 48.5 13.5t17.5 40.5v6q-29 -12 -67 -12q-56 0 -85.5 30.5t-29.5 87.5q0 66 39.5 101t111.5 35q86 0 126 -48zM152.5 657q7.5 -11 23.5 -11q13 0 26 5v46q0 39 -28 39
q-16 0 -22.5 -10t-6.5 -34t7.5 -35z" />
    <glyph glyph-name="uni2080" unicode="&#x2080;" horiz-adv-x="367" 
d="M20 155q0 106 42 154t121 48q164 0 164 -202q0 -97 -39 -148.5t-125 -51.5q-163 0 -163 200zM212 79v155q0 36 -29 36q-28 0 -28 -36v-155q0 -37 28 -37q29 0 29 37z" />
    <glyph glyph-name="uni2081" unicode="&#x2081;" horiz-adv-x="278" 
d="M28 -35v106h48v171h-56v68l89 37h107v-276h42v-106h-230z" />
    <glyph glyph-name="uni2082" unicode="&#x2082;" horiz-adv-x="315" 
d="M20 19q0 50 21 84.5t74 77.5q17 13 23 22t6 20q0 24 -37 24t-80 -16v101q56 25 129 25q63 0 98.5 -31t35.5 -84q0 -39 -17 -62t-51 -49q-25 -19 -36.5 -32.5t-11.5 -33.5h121v-100h-275v54z" />
    <glyph glyph-name="uni2083" unicode="&#x2083;" horiz-adv-x="313" 
d="M293 69q0 -54 -43.5 -84t-114.5 -30q-35 0 -67 5.5t-48 12.5v92q38 -8 69 -8q33 0 47.5 8t14.5 25q0 16 -12.5 23.5t-39.5 7.5h-17v76h17q28 0 39.5 6.5t11.5 22.5q0 17 -13.5 24t-43.5 7q-33 0 -70 -8v90q63 18 123 18q65 0 102 -28.5t37 -80.5q0 -58 -52 -86
q60 -29 60 -93z" />
    <glyph glyph-name="uni2084" unicode="&#x2084;" horiz-adv-x="360" 
d="M180 -35v64h-160v82l159 236h131v-241h30v-77h-30v-64h-130zM107 106h73v108z" />
    <glyph glyph-name="uni2085" unicode="&#x2085;" horiz-adv-x="336" 
d="M285.5 178.5q30.5 -30.5 30.5 -83.5q0 -67 -42 -103.5t-122 -36.5q-69 0 -131 18v93q47 -9 91 -9q40 0 59 10.5t19 33.5q0 14 -8 24t-25 10q-15 0 -24 -8t-16 -23l-97 5l22 238h256v-94h-159l-6 -55q30 11 64 11q58 0 88.5 -30.5z" />
    <glyph glyph-name="uni2086" unicode="&#x2086;" horiz-adv-x="357" 
d="M307.5 178.5q29.5 -30.5 29.5 -87.5q0 -66 -39.5 -101t-111.5 -35q-86 0 -126 48t-40 149q0 102 48 153.5t138 51.5q62 0 103 -16v-97q-39 13 -88 13q-31 0 -48.5 -13.5t-17.5 -40.5v-6q29 12 67 12q56 0 85.5 -30.5zM205.5 52q6.5 10 6.5 34t-7.5 35t-23.5 11
q-13 0 -26 -5v-46q0 -39 28 -39q16 0 22.5 10z" />
    <glyph glyph-name="uni2087" unicode="&#x2087;" horiz-adv-x="348" 
d="M113 111q38 82 85 142h-75v-39h-103v133h308v-75q-43 -64 -78.5 -152t-35.5 -155h-139q0 64 38 146z" />
    <glyph glyph-name="uni2088" unicode="&#x2088;" horiz-adv-x="353" 
d="M313 133.5q20 -23.5 20 -62.5q0 -57 -39.5 -86.5t-116.5 -29.5t-117 28.5t-40 84.5q0 40 21.5 64.5t50.5 34.5q-25 9 -43 30t-18 54q0 52 37 79t109 27q71 0 108 -27t37 -79q0 -33 -16 -54t-40 -30q27 -10 47 -33.5zM151 237q0 -18 6 -26t20 -8t19.5 8.5t5.5 25.5
t-5.5 25t-19.5 8q-26 0 -26 -33zM200.5 52q6.5 10 6.5 33t-6.5 33.5t-23.5 10.5t-24 -11t-7 -33t7 -32.5t24 -10.5t23.5 10z" />
    <glyph glyph-name="uni2089" unicode="&#x2089;" horiz-adv-x="357" 
d="M297 309q40 -48 40 -149q0 -102 -48 -153.5t-138 -51.5q-62 0 -103 16v97q39 -13 88 -13q31 0 48.5 13.5t17.5 40.5v6q-29 -12 -67 -12q-56 0 -85.5 30.5t-29.5 87.5q0 66 39.5 101t111.5 35q86 0 126 -48zM152.5 191q7.5 -11 23.5 -11q13 0 26 5v46q0 39 -28 39
q-16 0 -22.5 -10t-6.5 -34t7.5 -35z" />
    <glyph glyph-name="colonmonetary" unicode="&#x20a1;" horiz-adv-x="696" 
d="M521 478l-117 -312q72 11 72 72v71h200v-249q-46 -32 -120 -53t-156 -21q-31 0 -63 3l-25 -68h-83v20l24 64q-23 7 -52 19l-39 -103h-83v20l49 132q-108 100 -108 316q0 403 378 403l24 65h83v-20l-19 -52q36 -6 55 -11l31 83h83v-20l-34 -90q32 -14 55 -29v-240h-155z
M260 424l70 187q-70 -11 -70 -71v-116zM315 170l152 407q-13 23 -47 32l-152 -406q12 -24 47 -33z" />
    <glyph glyph-name="franc" unicode="&#x20a3;" horiz-adv-x="618" 
d="M598 519h-177v95h-91v-156h151v-114h-151v-54h91v-91h-91v-55h131v-144h-441v144h50v55h-50v91h50v324h-50v164h578v-259z" />
    <glyph glyph-name="lira" unicode="&#x20a4;" horiz-adv-x="633" 
d="M615 228q0 -102 -42.5 -172t-167.5 -70q-31 0 -55.5 4.5t-53.5 13.5q-29 8 -48 12t-43 4q-36 0 -59 -9t-33 -21l-86 86q84 98 86 202h-95v95h95q-4 13 -8 23t-7 18h-80v95h39q-4 23 -4 58q0 62 32 113t98.5 81.5t164.5 30.5q71 0 135.5 -15.5t110.5 -41.5v-166h-181v20
q0 13 -14 21t-40 8q-66 0 -66 -70q0 -23 4 -39h183v-95h-157q6 -26 8 -41h149v-95h-151q-8 -52 -25 -81q23 -10 43.5 -15t46.5 -5q41 0 58 15.5t17 35.5h146z" />
    <glyph glyph-name="uni20A6" unicode="&#x20a6;" horiz-adv-x="844" 
d="M824 614h-50v-69h50v-111h-50v-79h50v-111h-50v-244h-241l-150 252h-118v-88h48v-164h-293v164h50v80h-50v111h50v79h-50v111h50v69h-50v164h306l138 -241h115v77h-48v164h293v-164zM265 347h61l-61 102v-102zM579 442h-60l60 -105v105z" />
    <glyph glyph-name="peseta" unicode="&#x20a7;" horiz-adv-x="1436" 
d="M20 159h43v455h-43v164h315q122 0 186.5 -57.5t64.5 -184.5q0 -120 -59 -174t-172 -54h-82v-149h81v-159h-334v159zM706.5 37.5q-45.5 51.5 -45.5 173.5v181h-37v164q31 0 47.5 16t16.5 47v55h163v-118h114v-164h-114v-168q0 -33 14.5 -48.5t43.5 -15.5q32 0 61 9v-153
q-20 -12 -55 -21t-72 -9q-91 0 -136.5 51.5zM311 450q60 0 60 64v36q0 33 -15 48.5t-45 15.5h-38v-164h38zM1008 26v143h138v-10q0 -43 50 -43q48 0 48 38q0 20 -13.5 30.5t-46.5 20.5l-42 13q-68 21 -101 63t-33 111q0 84 56 131t152 47q97 0 179 -42v-134h-129v10
q0 36 -45 36q-43 0 -43 -34q0 -18 12 -27t44 -19l48 -15q74 -23 107 -65.5t33 -111.5q0 -89 -54 -135.5t-153 -46.5q-102 0 -207 40z" />
    <glyph glyph-name="uni20A9" unicode="&#x20a9;" horiz-adv-x="1103" 
d="M1083 614h-40l-17 -69h57v-111h-84l-16 -69h100v-111h-127l-62 -254h-239l-55 263h-84l-58 -263h-239l-66 254h-133v111h104l-17 69h-87v111h58l-18 69h-40v164h340v-164h-38l14 -77h80l50 241h228l51 -241h74l12 77h-38v164h290v-164zM537 357h43l-21 98zM805 443h-40
l23 -110zM397 442h-44l20 -115z" />
    <glyph glyph-name="dong" unicode="&#x20ab;" horiz-adv-x="684" 
d="M610 624v-460h44v-164h-274v68q-25 -32 -64.5 -57t-90.5 -25q-102 0 -153.5 76t-51.5 216t51.5 216t153.5 76q51 0 90.5 -25t64.5 -57v136h-169v101h169v53h230v-53h54v-101h-54zM380 328q0 33 -14.5 48.5t-43.5 15.5t-43.5 -15.5t-14.5 -48.5v-100q0 -33 14.5 -48.5
t43.5 -15.5t43.5 15.5t14.5 48.5v100zM25 -166v101h629v-101h-629z" />
    <glyph glyph-name="Euro" unicode="&#x20ac;" horiz-adv-x="721" 
d="M433 191.5q33 -27.5 94 -27.5q75 0 162 35v-153q-35 -23 -101 -41.5t-139 -18.5q-154 0 -247.5 69.5t-118.5 220.5h-71v79h64q-1 11 -1 34q0 28 1 42h-64v79h73q54 282 385 282q72 0 137.5 -15.5t101.5 -34.5l-27 -153q-87 25 -155 25q-60 0 -93 -25.5t-42 -78.5h276
l-14 -79h-265v-76h252l-14 -79h-235q8 -57 41 -84.5z" />
    <glyph glyph-name="uni20AD" unicode="&#x20ad;" horiz-adv-x="799" 
d="M729 164h50v-164h-210l-239 345v-181h48v-164h-358v164h50v185h-50v101h50v164h-50v164h358v-164h-48v-167l233 331h211v-164h-50l-130 -164h149v-101h-151z" />
    <glyph glyph-name="uni20B1" unicode="&#x20b1;" horiz-adv-x="762" 
d="M742 509h-50v-22v-22h50v-71h-59q-20 -92 -81.5 -134t-162.5 -42h-129v-54h116v-164h-406v164h50v230h-50v71h50v44h-50v71h50v64h-50v134h419q103 0 165 -47t81 -151h57v-71zM310 624v-49h131q-6 49 -57 49h-74zM310 460h132v54h-132v-54zM441 399h-131v-49h74
q51 0 57 49z" />
    <glyph glyph-name="uni20B2" unicode="&#x20b2;" horiz-adv-x="760" 
d="M730 250h-54v-190q-44 -31 -110 -51t-154 -23v-65h-90l-1 69q-143 18 -222 116t-79 283q0 188 78 284.5t224 114.5v69h90v-65q84 -2 153 -23t111 -51v-230h-200v47q0 35 -17.5 53.5t-55.5 23.5v-446q38 5 55.5 23.5t17.5 53.5v7h-30v149h284v-149zM277 200q17 -25 52 -32
v442q-35 -7 -52 -32t-17 -73v-232q0 -48 17 -73z" />
    <glyph glyph-name="uni20B5" unicode="&#x20b5;" horiz-adv-x="696" 
d="M476 478v62q0 57 -60 69v-440q60 12 60 69v71h200v-249q-43 -31 -113 -51.5t-147 -22.5v-65h-90v69q-148 18 -227 114.5t-79 284.5q0 363 306 399v69h90v-65q77 -3 146.5 -23.5t113.5 -50.5v-240h-200zM276.5 201.5q16.5 -24.5 49.5 -32.5v440q-33 -8 -49.5 -32.5
t-16.5 -66.5v-242q0 -42 16.5 -66.5z" />
    <glyph glyph-name="uni20B9" unicode="&#x20b9;" horiz-adv-x="579" 
d="M471 614q9 -22 16 -55h72v-101h-68q-9 -64 -44 -105.5t-90 -59.5l129 -129h73v-164h-183l-265 263h-91v140h163q32 0 49 13t19 42h-231v101h231q-2 29 -19 42t-49 13h-163v164h539v-164h-88z" />
    <glyph glyph-name="uni20BA" unicode="&#x20ba;" horiz-adv-x="686" 
d="M666 313v-30q0 -107 -32.5 -168t-105.5 -88t-201 -27h-277v164h50v105l-60 -20h-20v111l80 26v73l-60 -20h-20v111l80 26v202h260v-117l181 59h20v-111l-201 -66v-72l181 59h20v-111l-201 -66v-189q59 0 83 26.5t24 92.5v30h199z" />
    <glyph glyph-name="uni20BC" unicode="&#x20bc;" horiz-adv-x="850" 
d="M829 164v-164h-257v355q0 101 -82 128v-482h-130v482q-82 -27 -82 -128v-355h-257v164h47v217q0 123 76.5 198t215.5 90v108h130v-108q139 -15 215.5 -90t76.5 -198v-217h47z" />
    <glyph glyph-name="uni20BD" unicode="&#x20bd;" horiz-adv-x="712" 
d="M330 339v-47h233v-81h-233v-47h96v-164h-406v164h50v47h-50v81h50v322h-50v164h399q133 0 203 -52t70 -168q0 -115 -70.5 -167t-202.5 -52h-89zM330 450h34q58 0 58 64v36q0 33 -14.5 48.5t-43.5 15.5h-34v-164z" />
    <glyph glyph-name="uni2113" unicode="&#x2113;" horiz-adv-x="600" 
d="M546 212v-43q0 -80 -54 -128.5t-155 -48.5q-105 0 -159.5 50t-54.5 140v52l-52 -14v124l52 15v180q0 84 48.5 133.5t159.5 49.5q213 0 213 -189q0 -92 -57.5 -154.5t-178.5 -96.5v-118q0 -26 11 -36.5t36 -10.5q24 0 34.5 12t10.5 35v48h146zM317 595.5q-9 -9.5 -9 -26.5
v-158q33 12 50 40.5t17 77.5v40q0 17 -8.5 26.5t-24.5 9.5t-25 -9.5z" />
    <glyph glyph-name="uni2116" unicode="&#x2116;" horiz-adv-x="1431" 
d="M930 282.5q-72 74.5 -72 217.5t72 217.5t199 74.5q129 0 200.5 -75.5t71.5 -216.5q0 -143 -72 -217.5t-200 -74.5q-127 0 -199 74.5zM528 614v164h291v-164h-45v-614h-253l-254 431v-267h43v-164h-290v164h45v450h-45v164h310l242 -410v246h-44zM1077 450q0 -33 13 -48.5
t39 -15.5q27 0 40 15.5t13 48.5v100q0 33 -13 48.5t-40 15.5q-52 0 -52 -64v-100zM898 57v98h463v-98h-463z" />
    <glyph glyph-name="trademark" unicode="&#x2122;" horiz-adv-x="946" 
d="M377 778v-117h-83v38h-31v-217h34v-79h-202v79h33v217h-31v-38h-82v117h362zM931 699h-24v-217h24v-79h-182v79h23v168l-82 -247h-71l-85 246v-167h24v-79h-159v79h25v217h-25v79h221l50 -149l49 149h212v-79z" />
    <glyph glyph-name="uni2126" unicode="&#x2126;" horiz-adv-x="809" 
d="M20 164h175q-84 34 -127 110t-43 179q0 105 45 181t130.5 116.5t203.5 40.5q119 0 204.5 -40t130.5 -116t45 -181q0 -214 -174 -290h179v-164h-357v194q29 14 40 33t11 51l1 237q0 50 -19.5 74t-60.5 24t-60.5 -24t-19.5 -76v-235q0 -32 11 -51t40 -33v-194h-355v164z
" />
    <glyph glyph-name="estimated" unicode="&#x212e;" horiz-adv-x="629" 
d="M166 26.5q-62 40.5 -94 107.5t-32 145q0 96 40 161.5t103 97.5t132 32q78 0 140 -35.5t98 -102t36 -153.5h-428v-185q25 -27 66.5 -45t87.5 -18q73 0 119 29.5t85 90.5l37 -21q-44 -69 -97.5 -106.5t-143.5 -37.5q-87 0 -149 40.5zM469 323v143q-23 24 -64 42.5t-92 18.5
q-90 0 -152 -60v-144h308z" />
    <glyph glyph-name="partialdiff" unicode="&#x2202;" horiz-adv-x="721" 
d="M624 709.5q79 -82.5 79 -228.5q0 -140 -53.5 -253t-147 -177.5t-208.5 -64.5q-131 0 -204.5 65.5t-73.5 181.5q0 90 42.5 163t116.5 115t166 42q63 0 117 -24q-5 49 -30.5 73t-75.5 24q-62 0 -133 -27v157q38 17 87.5 26.5t96.5 9.5q142 0 221 -82.5zM383 220.5
q39 56.5 60 143.5q-19 11 -42 11q-36 0 -68.5 -24.5t-52.5 -61.5t-20 -73q0 -52 42 -52t81 56.5z" />
    <glyph glyph-name="emptyset" unicode="&#x2205;" horiz-adv-x="670" 
d="M567 490q47 -69 47 -158q0 -78 -36 -141t-99 -99t-141 -36q-50 0 -95 15.5t-81 44.5l-68 -63l-54 59l68 63q-45 71 -45 157q0 77 36 140t99 99t140 36q100 0 174 -58l63 59l55 -59zM216 276l188 173q-30 16 -66 16q-57 0 -95 -38t-38 -95q0 -31 11 -56zM459 391
l-189 -175q28 -18 68 -18q58 0 96 38t38 96q0 30 -13 59z" />
    <glyph glyph-name="uni2206" unicode="&#x2206;" horiz-adv-x="800" 
d="M514 778l274 -670v-108h-776v109l274 669h228zM400 521l-123 -327h247z" />
    <glyph glyph-name="product" unicode="&#x220f;" horiz-adv-x="788" 
d="M88 -222v836h-70v164h752v-164h-70v-836h-238v836h-134v-836h-240z" />
    <glyph glyph-name="summation" unicode="&#x2211;" horiz-adv-x="707" 
d="M522 37h177v-259h-687v150l262 344l-253 360v146h658v-259h-177v95h-195l235 -332l-261 -340h241v95z" />
    <glyph glyph-name="minus" unicode="&#x2212;" horiz-adv-x="540" 
d="M40 259v167h460v-167h-460z" />
    <glyph glyph-name="uni2215" unicode="&#x2215;" horiz-adv-x="423" 
d="M-20 -151v32l321 961h142v-32l-320 -961h-143z" />
    <glyph glyph-name="uni2219" unicode="&#x2219;" horiz-adv-x="211" 
d="M24 320v152h156v-152h-156z" />
    <glyph glyph-name="radical" unicode="&#x221a;" horiz-adv-x="735" 
d="M215 -7l-115 310h-88v164h230l91 -251l196 562h202l-271 -785h-245z" />
    <glyph glyph-name="infinity" unicode="&#x221e;" horiz-adv-x="842" 
d="M755 561q53 -60 53 -164q0 -103 -53 -163t-147 -60q-64 0 -110 30.5t-83 82.5q-39 -52 -82.5 -82.5t-98.5 -30.5q-94 0 -147 61t-53 166q0 101 53 160.5t147 59.5q62 0 107 -29.5t82 -79.5q38 51 82 80t103 29q94 0 147 -60zM308.5 345q18.5 17 39.5 50q-21 36 -39 54
t-40 18q-29 0 -45 -18t-16 -50t16.5 -51.5t44.5 -19.5q21 0 39.5 17zM618.5 347q15.5 19 15.5 52t-15.5 50.5t-45.5 17.5q-20 0 -40 -17t-41 -48q21 -36 40 -55t41 -19q30 0 45.5 19z" />
    </font>
</defs>
</svg>
